generated from DragonRatTiger/Custom-Charts
692 lines
8.1 KiB
Plaintext
692 lines
8.1 KiB
Plaintext
TITLE:secret:mirage
|
||
TITLEJA:secret:mirage
|
||
SUBTITLE:--Kayuki / 【BOFXVII】
|
||
SUBTITLEJA:かゆき 「【BOFXVII】」より
|
||
BPM:164
|
||
WAVE:secretmirage.ogg
|
||
PREIMAGE:secretmirage.png
|
||
OFFSET:-0.793
|
||
DEMOSTART:88.6591
|
||
MAKER:Colin
|
||
BGMOVIE:secretmirage.mp4
|
||
|
||
COURSE:Easy
|
||
LEVEL:5
|
||
SCOREINIT:
|
||
SCOREDIFF:
|
||
NOTESDESIGNER0:Colin
|
||
|
||
#START
|
||
#MEASURE 15/16
|
||
300000000000000,
|
||
#MEASURE 29/16
|
||
30000000000000000000000000000,
|
||
#MEASURE 11/8
|
||
1000000000000100
|
||
#BPMCHANGE 90
|
||
#SCROLL 1.82222
|
||
0010
|
||
#BPMCHANGE 65
|
||
#SCROLL 2.52308
|
||
00,
|
||
#MEASURE 13/16
|
||
#BPMCHANGE 164
|
||
#SCROLL 1
|
||
1000001000000,
|
||
#MEASURE 17/16
|
||
10000000000000000,
|
||
#MEASURE 13/16
|
||
1000001000000,
|
||
#MEASURE 15/16
|
||
100000000000000,
|
||
#MEASURE 3/8
|
||
200,
|
||
#MEASURE 4/8
|
||
20,
|
||
#MEASURE 3/8
|
||
200,
|
||
#MEASURE 4/8
|
||
20,
|
||
#MEASURE 4/4
|
||
2,
|
||
#MEASURE 5/4
|
||
20000,
|
||
#MEASURE 5/8
|
||
10000,
|
||
,
|
||
10000,
|
||
,
|
||
10000,
|
||
,
|
||
10000,
|
||
,
|
||
20000,
|
||
20000,
|
||
20000,
|
||
20020,
|
||
20200,
|
||
20000,
|
||
20000,
|
||
#MEASURE 3/4
|
||
100,
|
||
,
|
||
100,
|
||
,
|
||
100,
|
||
,
|
||
100,
|
||
,
|
||
300,
|
||
300,
|
||
300,
|
||
300,
|
||
300,
|
||
200,
|
||
200,
|
||
2000
|
||
#BPMCHANGE 130
|
||
#SCROLL 1.26154
|
||
0000
|
||
#BPMCHANGE 75
|
||
#SCROLL 2.18667
|
||
00
|
||
#BPMCHANGE 55
|
||
#SCROLL 3
|
||
0
|
||
#BPMCHANGE 15
|
||
#SCROLL 10.9333
|
||
0,
|
||
#MEASURE 7/8
|
||
#GOGOSTART
|
||
#BPMCHANGE 164
|
||
#SCROLL 1
|
||
30000003000000,
|
||
#MEASURE 9/8
|
||
300010000,
|
||
#MEASURE 7/8
|
||
1010100,
|
||
#MEASURE 9/8
|
||
100000000,
|
||
#MEASURE 4/4
|
||
#GOGOEND
|
||
2000000200002000,
|
||
2000200200000000,
|
||
#GOGOSTART
|
||
2020,
|
||
2,
|
||
#MEASURE 7/8
|
||
#GOGOEND
|
||
2000000,
|
||
#MEASURE 6/8
|
||
200,
|
||
#MEASURE 7/8
|
||
2000000,
|
||
#MEASURE 9/8
|
||
200000000,
|
||
#MEASURE 7/8
|
||
1000000,
|
||
1000000,
|
||
10000001000000,
|
||
#MEASURE 13/16
|
||
1000000000000,
|
||
#MEASURE 12/8
|
||
200000,
|
||
#MEASURE 6/8
|
||
400,
|
||
400,
|
||
#MEASURE 12/8
|
||
400000,
|
||
400400000000000000000000,
|
||
400400000000000000000000,
|
||
#MEASURE 6/8
|
||
400,
|
||
400,
|
||
300,
|
||
300300,
|
||
#MEASURE 4/4
|
||
#GOGOSTART
|
||
3,
|
||
1110,
|
||
#MEASURE 7/8
|
||
1001000,
|
||
#MEASURE 9/8
|
||
300030000,
|
||
#MEASURE 4/4
|
||
#GOGOEND
|
||
3010,
|
||
1,
|
||
2020,
|
||
2,
|
||
#GOGOSTART
|
||
2020,
|
||
2220,
|
||
1010,
|
||
1110,
|
||
#MEASURE 7/8
|
||
2000200,
|
||
#MEASURE 4/4
|
||
2,
|
||
2,
|
||
#MEASURE 17/16
|
||
#GOGOEND
|
||
30000000000000000,
|
||
#GOGOSTART
|
||
60000000000000000,
|
||
#MEASURE 4/4
|
||
0,
|
||
,
|
||
,
|
||
#GOGOEND
|
||
8,
|
||
#END
|
||
|
||
COURSE:Normal
|
||
LEVEL:6
|
||
SCOREINIT:
|
||
SCOREDIFF:
|
||
NOTESDESIGNER1:Colin
|
||
|
||
#START
|
||
#MEASURE 15/16
|
||
300000030000000,
|
||
#MEASURE 29/16
|
||
30000000000000000000000000000,
|
||
#MEASURE 11/8
|
||
1000001000000100
|
||
#BPMCHANGE 90
|
||
#SCROLL 1.82222
|
||
1010
|
||
#BPMCHANGE 65
|
||
#SCROLL 2.52308
|
||
00,
|
||
#MEASURE 13/16
|
||
#BPMCHANGE 164
|
||
#SCROLL 1
|
||
1000001000100,
|
||
#MEASURE 17/16
|
||
10000010000000000,
|
||
#MEASURE 13/16
|
||
1000001000000,
|
||
#MEASURE 15/16
|
||
100000100000000,
|
||
#MEASURE 3/8
|
||
200,
|
||
#MEASURE 4/8
|
||
22,
|
||
#MEASURE 3/8
|
||
200,
|
||
#MEASURE 4/8
|
||
22,
|
||
#MEASURE 4/4
|
||
2,
|
||
#MEASURE 5/4
|
||
20000,
|
||
#MEASURE 5/8
|
||
10010,
|
||
10000,
|
||
10010,
|
||
10000,
|
||
10010,
|
||
10000,
|
||
10010,
|
||
10000,
|
||
20000,
|
||
20020,
|
||
20000,
|
||
20022,
|
||
20200,
|
||
20020,
|
||
20000,
|
||
#MEASURE 3/4
|
||
100,
|
||
,
|
||
111,
|
||
100,
|
||
100,
|
||
,
|
||
101,
|
||
100,
|
||
300,
|
||
300,
|
||
300,
|
||
300,
|
||
300,
|
||
200200,
|
||
200,
|
||
2000
|
||
#BPMCHANGE 130
|
||
#SCROLL 1.26154
|
||
0000
|
||
#BPMCHANGE 75
|
||
#SCROLL 2.18667
|
||
00
|
||
#BPMCHANGE 55
|
||
#SCROLL 3
|
||
0
|
||
#BPMCHANGE 15
|
||
#SCROLL 10.9333
|
||
0,
|
||
#MEASURE 7/8
|
||
#GOGOSTART
|
||
#BPMCHANGE 164
|
||
#SCROLL 1
|
||
30000003000000,
|
||
#MEASURE 9/8
|
||
300010011,
|
||
#MEASURE 7/8
|
||
1010100,
|
||
#MEASURE 9/8
|
||
303030000,
|
||
#MEASURE 4/4
|
||
#GOGOEND
|
||
2000020200002000,
|
||
2000200200000000,
|
||
#GOGOSTART
|
||
2220,
|
||
2220,
|
||
#MEASURE 7/8
|
||
#GOGOEND
|
||
2000000,
|
||
#MEASURE 6/8
|
||
200,
|
||
#MEASURE 7/8
|
||
2000000,
|
||
#MEASURE 9/8
|
||
200000000000100100,
|
||
#MEASURE 7/8
|
||
1000000,
|
||
10000001000000,
|
||
10000001000000,
|
||
#MEASURE 13/16
|
||
1000000000000,
|
||
#MEASURE 12/8
|
||
200000,
|
||
#MEASURE 6/8
|
||
400,
|
||
400,
|
||
#MEASURE 12/8
|
||
400400000000000000000040,
|
||
400400000000000000400000,
|
||
400400000000000000000040,
|
||
#MEASURE 6/8
|
||
400,
|
||
400,
|
||
300,
|
||
300300,
|
||
#MEASURE 4/4
|
||
#GOGOSTART
|
||
30001011,
|
||
1110,
|
||
#MEASURE 7/8
|
||
1001000,
|
||
#MEASURE 9/8
|
||
300030000,
|
||
#MEASURE 4/4
|
||
#GOGOEND
|
||
30001001,
|
||
1010,
|
||
2220,
|
||
2020,
|
||
#GOGOSTART
|
||
20002022,
|
||
2220,
|
||
10001011,
|
||
1110,
|
||
#MEASURE 7/8
|
||
2000200,
|
||
#MEASURE 4/4
|
||
2,
|
||
2,
|
||
#MEASURE 17/16
|
||
#GOGOEND
|
||
30000000000000000,
|
||
#GOGOSTART
|
||
60000000000000000,
|
||
#MEASURE 4/4
|
||
0,
|
||
,
|
||
,
|
||
#GOGOEND
|
||
8,
|
||
#END
|
||
|
||
COURSE:Hard
|
||
LEVEL:7
|
||
SCOREINIT:
|
||
SCOREDIFF:
|
||
NOTESDESIGNER2:Colin
|
||
|
||
#START
|
||
#MEASURE 15/16
|
||
030030030030030,
|
||
#MEASURE 29/16
|
||
60000000000000000000000000000,
|
||
#MEASURE 11/8
|
||
8000002000000001
|
||
#BPMCHANGE 90
|
||
#SCROLL 1.82222
|
||
0010
|
||
#BPMCHANGE 65
|
||
#SCROLL 2.52308
|
||
00,
|
||
#MEASURE 13/16
|
||
#BPMCHANGE 164
|
||
#SCROLL 1
|
||
3003003000000,
|
||
#MEASURE 17/16
|
||
30020020000000000,
|
||
#MEASURE 13/16
|
||
2001002011000,
|
||
#MEASURE 15/16
|
||
101110200000000,
|
||
#MEASURE 3/8
|
||
300300,
|
||
#MEASURE 4/8
|
||
32,
|
||
#MEASURE 3/8
|
||
300300,
|
||
#MEASURE 4/8
|
||
32,
|
||
#MEASURE 4/4
|
||
30212021,
|
||
#MEASURE 5/4
|
||
20002010220000001000,
|
||
#MEASURE 5/8
|
||
10010,
|
||
10010,
|
||
1000001110,
|
||
10011,
|
||
10010,
|
||
10010,
|
||
1000001110,
|
||
12122,
|
||
1022001010,
|
||
2020222010,
|
||
1022001020,
|
||
11112,
|
||
10120,
|
||
1002001011,
|
||
1022202020,
|
||
#MEASURE 3/4
|
||
121020,
|
||
120020,
|
||
101120,
|
||
122020,
|
||
122,
|
||
122021,
|
||
111020,
|
||
112020,
|
||
300300300000,
|
||
300300300000,
|
||
300300,
|
||
300300,
|
||
300100,
|
||
100100,
|
||
100,
|
||
1000
|
||
#BPMCHANGE 130
|
||
#SCROLL 1.26154
|
||
0000
|
||
#BPMCHANGE 75
|
||
#SCROLL 2.18667
|
||
00
|
||
#BPMCHANGE 55
|
||
#SCROLL 3
|
||
0
|
||
#BPMCHANGE 15
|
||
#SCROLL 10.9333
|
||
0,
|
||
#MEASURE 7/8
|
||
#GOGOSTART
|
||
#BPMCHANGE 164
|
||
#SCROLL 1
|
||
30102002002020,
|
||
#MEASURE 9/8
|
||
111010200100001011,
|
||
#MEASURE 7/8
|
||
1020102,
|
||
#MEASURE 9/8
|
||
303040300,
|
||
#MEASURE 4/4
|
||
#GOGOEND
|
||
3000040300003000,
|
||
3011010200001000,
|
||
#GOGOSTART
|
||
30112010,
|
||
3001001020202000,
|
||
#MEASURE 7/8
|
||
#GOGOEND
|
||
4000000,
|
||
#MEASURE 6/8
|
||
200,
|
||
#MEASURE 7/8
|
||
2000020,
|
||
#MEASURE 9/8
|
||
200000000000300300,
|
||
#MEASURE 7/8
|
||
40000200010020,
|
||
10002001002200,
|
||
10020010002011,
|
||
#MEASURE 13/16
|
||
1020010022200,
|
||
#MEASURE 12/8
|
||
100000,
|
||
#MEASURE 6/8
|
||
600008,
|
||
600008,
|
||
#MEASURE 12/8
|
||
300300000000000000000030,
|
||
300300000000000000300000,
|
||
300300000000000000000030,
|
||
#MEASURE 6/8
|
||
300300,
|
||
300300,
|
||
300,
|
||
333333,
|
||
#MEASURE 4/4
|
||
#GOGOSTART
|
||
30211212,
|
||
1000111020002010,
|
||
#MEASURE 7/8
|
||
2002112,
|
||
#MEASURE 9/8
|
||
300040003000400400,
|
||
#MEASURE 4/4
|
||
#GOGOEND
|
||
3000100020010020,
|
||
1000100020110020,
|
||
1020100020111020,
|
||
1000200020222020,
|
||
#GOGOSTART
|
||
1020101110201000,
|
||
1020100010220022,
|
||
22102210,
|
||
4040400300000000,
|
||
#MEASURE 7/8
|
||
30102000201110,
|
||
#MEASURE 4/4
|
||
20000212,
|
||
1,
|
||
#MEASURE 17/16
|
||
#GOGOEND
|
||
30030030030303030,
|
||
#GOGOSTART
|
||
60000000000000000,
|
||
#MEASURE 4/4
|
||
0,
|
||
,
|
||
,
|
||
#GOGOEND
|
||
8,
|
||
#END
|
||
|
||
COURSE:Oni
|
||
LEVEL:10
|
||
SCOREINIT:
|
||
SCOREDIFF:
|
||
NOTESDESIGNER3:Colin
|
||
|
||
#START
|
||
#MEASURE 15/16
|
||
120120120212122,
|
||
#MEASURE 29/16
|
||
10001122222211111202112100000,
|
||
#MEASURE 11/8
|
||
200000000000000000000000100000000000200000000000000000000000100000000000100000000000000000000000100000000000100000000000200000000000000000000000100000000000100000000000000000000000100000000000
|
||
#BPMCHANGE 90
|
||
#SCROLL 1.82222
|
||
200000000000100000200000100000100000100000100000
|
||
#BPMCHANGE 65
|
||
#SCROLL 2.52308
|
||
200020000200000000001000,
|
||
#MEASURE 13/16
|
||
#BPMCHANGE 164
|
||
#SCROLL 1
|
||
2011012011200,
|
||
#MEASURE 17/16
|
||
10221220122020122,
|
||
#MEASURE 13/16
|
||
2112112121000,
|
||
#MEASURE 15/16
|
||
112112101122100,
|
||
#MEASURE 3/8
|
||
101202,
|
||
#MEASURE 4/8
|
||
10111020,
|
||
#MEASURE 3/8
|
||
101201,
|
||
#MEASURE 4/8
|
||
10221122,
|
||
#MEASURE 4/4
|
||
1011201020112010,
|
||
#MEASURE 5/4
|
||
10202021120000003000,
|
||
#MEASURE 5/8
|
||
3012011221,
|
||
2012021222,
|
||
1210221122,
|
||
1002002012,
|
||
1012011211,
|
||
2012021222,
|
||
1201101120,
|
||
1020112010,
|
||
2012021211,
|
||
2021021020,
|
||
1211111112,
|
||
1022011022,
|
||
1011222011,
|
||
1011201122,
|
||
1012102211,
|
||
#MEASURE 3/4
|
||
101020102011,
|
||
101020112211,
|
||
101020102211,
|
||
101020112222,
|
||
101020102211,
|
||
101020102211,
|
||
101020102211,
|
||
112121,
|
||
220122121210,
|
||
202101202022,
|
||
101122101020,
|
||
102101201111,
|
||
200000112210,
|
||
101122101221,
|
||
101212111122,
|
||
2211
|
||
#BPMCHANGE 130
|
||
#SCROLL 1.26154
|
||
2011
|
||
#BPMCHANGE 75
|
||
#SCROLL 2.18667
|
||
22
|
||
#BPMCHANGE 55
|
||
#SCROLL 2.98182
|
||
2
|
||
#BPMCHANGE 15
|
||
#SCROLL 10.9333
|
||
2,
|
||
#MEASURE 7/8
|
||
#GOGOSTART
|
||
#BPMCHANGE 164
|
||
#SCROLL 1
|
||
30201111201201,
|
||
#MEASURE 9/8
|
||
201120112010210121,
|
||
#MEASURE 7/8
|
||
10221120102102,
|
||
#MEASURE 9/8
|
||
100000003000001120001000202010101010,
|
||
#MEASURE 4/4
|
||
#GOGOEND
|
||
2000030402203040,
|
||
3022112100004000,
|
||
#GOGOSTART
|
||
3012101020121201,
|
||
2011012022112020,
|
||
#MEASURE 7/8
|
||
#GOGOEND
|
||
30120110112210,
|
||
#MEASURE 6/8
|
||
101210221012,
|
||
#MEASURE 7/8
|
||
10120000002211,
|
||
#MEASURE 9/8
|
||
112211221210300300,
|
||
#MEASURE 7/8
|
||
30101210121020,
|
||
12111022211212,
|
||
10221011212011,
|
||
#MEASURE 13/16
|
||
1211010121222,
|
||
#MEASURE 12/8
|
||
102020102010101001221122,
|
||
#MEASURE 6/8
|
||
110122101111,
|
||
211121221211,
|
||
#MEASURE 12/8
|
||
100400102010201120102030,
|
||
300400001020500080301020,
|
||
300400202010102010102030,
|
||
#MEASURE 6/8
|
||
402200302200,
|
||
401200301100,
|
||
302021021020,
|
||
322322,
|
||
#MEASURE 4/4
|
||
#GOGOSTART
|
||
3020112010210120,
|
||
1020112010211122,
|
||
#MEASURE 7/8
|
||
10201120122211,
|
||
#MEASURE 9/8
|
||
200040003000300400,
|
||
#MEASURE 4/4
|
||
#GOGOEND
|
||
3000201120010020,
|
||
1022201020120110,
|
||
2011210120112020,
|
||
1020102011221122,
|
||
#GOGOSTART
|
||
1021012020121120,
|
||
1020112202101122,
|
||
1012112020112022,
|
||
1020202100222022,
|
||
#MEASURE 7/8
|
||
10102211201201,
|
||
#MEASURE 4/4
|
||
1120102021211120,
|
||
300000000000100000200000100100200020002000200000,
|
||
#MEASURE 17/16
|
||
#GOGOEND
|
||
40120120121112210,
|
||
#GOGOSTART
|
||
60000000000000000,
|
||
#MEASURE 4/4
|
||
0,
|
||
,
|
||
0000000000008022,
|
||
#GOGOEND
|
||
1,
|
||
#END
|