generated from DragonRatTiger/Custom-Charts
414 lines
4.0 KiB
Plaintext
414 lines
4.0 KiB
Plaintext
TITLE:Asymmetry
|
|
TITLEJA:アシンメトリー
|
|
SUBTITLE:--Reol
|
|
SUBTITLEJA:Reol
|
|
BPM:184
|
|
WAVE:Asymmetry.ogg
|
|
OFFSET:-0.075
|
|
DEMOSTART:52.248
|
|
MAKER:Colin
|
|
PREIMAGE:Asymmetry.jpg
|
|
|
|
COURSE:Oni
|
|
LEVEL:9
|
|
BALLOON:
|
|
SCOREINIT:
|
|
SCOREDIFF:
|
|
NOTESDESIGNER3:Colin
|
|
|
|
|
|
#START
|
|
1001001001001001,
|
|
1001001001001001,
|
|
1001001001001001,
|
|
1001001020010010,
|
|
2010201021102020,
|
|
1011201020102120,
|
|
1010201012112010,
|
|
1011201010201120,
|
|
1021001021201020,
|
|
1001001021201020,
|
|
1001002010201000,
|
|
1001001010012010,
|
|
1021001021201020,
|
|
1001001021201020,
|
|
1001002010201000,
|
|
1021001020001000,
|
|
1011202010112020,
|
|
1011201020102020,
|
|
1011201020112010,
|
|
1011202121201010,
|
|
1011201020112010,
|
|
1011201020112010,
|
|
1011201020112010,
|
|
1011202121202010,
|
|
50008012,
|
|
11121112,
|
|
10112212,
|
|
1021101020102010,
|
|
1001001020202020,
|
|
1021202010101010,
|
|
10111112,
|
|
1001001010002000,
|
|
1011202010102010,
|
|
1011201011221020,
|
|
1010201010201120,
|
|
1021201122102020,
|
|
21212121,
|
|
200100200200100111200100,
|
|
21212121,
|
|
1010201011112020,
|
|
#GOGOSTART
|
|
1011201021212010,
|
|
1011201120112020,
|
|
1011201021212010,
|
|
2121201121112020,
|
|
1011202010102121,
|
|
2011202021212010,
|
|
1022112010102012,
|
|
1010201022112020,
|
|
1011201021212010,
|
|
1011201020102020,
|
|
1011201021212010,
|
|
1011201022112010,
|
|
1010201120102012,
|
|
1011201020102211,
|
|
2010201011201020,
|
|
1011201022112020,
|
|
1010201121112010,
|
|
1020101120102010,
|
|
1011211120102010,
|
|
#GOGOEND
|
|
#BARLINEOFF
|
|
000
|
|
#BPMCHANGE 179
|
|
0,
|
|
#BARLINEON
|
|
#GOGOSTART
|
|
#BPMCHANGE 184
|
|
1011201010112020,
|
|
1010202010102012,
|
|
1010201021212120,
|
|
1011211121112020,
|
|
1010201010102012,
|
|
1010201210201122,
|
|
11211121,
|
|
1020102121221122,
|
|
1010201210112210,
|
|
1011201020102012,
|
|
1011201122121210,
|
|
1011201212101212,
|
|
1010201020102211,
|
|
2010201020102011,
|
|
2010212010102012,
|
|
1120101021212000,
|
|
#GOGOEND
|
|
1010201012112010,
|
|
100200100100200100100222,
|
|
11211211,
|
|
200000200100200000101010200000100000200000200000,
|
|
#END
|
|
|
|
|
|
COURSE:Hard
|
|
LEVEL:6
|
|
BALLOON:
|
|
SCOREINIT:
|
|
SCOREDIFF:
|
|
NOTESDESIGNER2:Colin
|
|
|
|
|
|
#START
|
|
1,
|
|
1,
|
|
1,
|
|
11,
|
|
1020100011102000,
|
|
1020100011102000,
|
|
1020100011102000,
|
|
1020100011102000,
|
|
20000022,
|
|
00022222,
|
|
20000022,
|
|
11,
|
|
10000011,
|
|
10011111,
|
|
10000015,
|
|
00081020,
|
|
11210120,
|
|
11210120,
|
|
11210120,
|
|
11210100,
|
|
11210120,
|
|
11210120,
|
|
11210120,
|
|
1111,
|
|
58,
|
|
1,
|
|
1,
|
|
11,
|
|
1,
|
|
1,
|
|
1,
|
|
1002,
|
|
10101210,
|
|
10101210,
|
|
10101210,
|
|
10101210,
|
|
11111111,
|
|
1010101010111010,
|
|
50000008,
|
|
0,
|
|
#GOGOSTART
|
|
30330306,
|
|
08404040,
|
|
6,
|
|
0833,
|
|
60083034,
|
|
04303346,
|
|
00082121,
|
|
2000111020002000,
|
|
30330306,
|
|
08404040,
|
|
6,
|
|
0833,
|
|
60083034,
|
|
04303346,
|
|
00082121,
|
|
2000111020200010,
|
|
10112120,
|
|
20202225,
|
|
00000008,
|
|
#GOGOEND
|
|
#BARLINEOFF
|
|
000
|
|
#BPMCHANGE 179
|
|
0,
|
|
#BPMCHANGE 184
|
|
#GOGOSTART
|
|
#BARLINEON
|
|
1010200011102000,
|
|
1010200011102000,
|
|
1010200011102000,
|
|
1010200011102000,
|
|
1010200011102000,
|
|
1010200011102000,
|
|
1010200011102000,
|
|
1010200011102000,
|
|
1010200011102000,
|
|
1010200011102000,
|
|
1010200011102000,
|
|
1010200011102000,
|
|
1010200011102000,
|
|
1010200011102000,
|
|
1010200011102000,
|
|
10101110,
|
|
#GOGOEND
|
|
30030030,
|
|
03003003,
|
|
00300300,
|
|
30030033,
|
|
#END
|
|
|
|
|
|
COURSE:Normal
|
|
LEVEL:6
|
|
BALLOON:150,100
|
|
SCOREINIT:
|
|
SCOREDIFF:
|
|
NOTESDESIGNER1:Colin
|
|
|
|
|
|
#START
|
|
1,
|
|
1,
|
|
1,
|
|
11,
|
|
1110,
|
|
1110,
|
|
1110,
|
|
1110,
|
|
12,
|
|
12,
|
|
12,
|
|
11,
|
|
12,
|
|
1,
|
|
2,
|
|
22,
|
|
1120,
|
|
1110,
|
|
1120,
|
|
1210,
|
|
1120,
|
|
1110,
|
|
1120,
|
|
1210,
|
|
7,
|
|
0,
|
|
0,
|
|
0,
|
|
0,
|
|
0,
|
|
0,
|
|
0008,
|
|
10101110,
|
|
10101110,
|
|
10101110,
|
|
10101110,
|
|
1111,
|
|
1111,
|
|
50000008,
|
|
0,
|
|
#GOGOSTART
|
|
6,
|
|
08303030,
|
|
6,
|
|
0833,
|
|
60083036,
|
|
0,
|
|
00008011,
|
|
1122,
|
|
6,
|
|
08303030,
|
|
6,
|
|
0833,
|
|
60083036,
|
|
0,
|
|
00008011,
|
|
10102225,
|
|
0081,
|
|
10101105,
|
|
00000008,
|
|
#GOGOEND
|
|
#BARLINEOFF
|
|
000
|
|
#BPMCHANGE 179
|
|
0,
|
|
#BPMCHANGE 184
|
|
#GOGOSTART
|
|
#BARLINEON
|
|
10101110,
|
|
10202220,
|
|
10101110,
|
|
10202220,
|
|
10101110,
|
|
10202220,
|
|
10101110,
|
|
10202220,
|
|
10101110,
|
|
10202220,
|
|
10101110,
|
|
10202220,
|
|
10101110,
|
|
10202220,
|
|
10101110,
|
|
10202220,
|
|
#GOGOEND
|
|
7,
|
|
0,
|
|
0,
|
|
00000008,
|
|
#END
|
|
|
|
|
|
COURSE:Easy
|
|
LEVEL:5
|
|
BALLOON:100,50
|
|
SCOREINIT:
|
|
SCOREDIFF:
|
|
NOTESDESIGNER0:Colin
|
|
|
|
|
|
#START
|
|
1,
|
|
1,
|
|
1,
|
|
1,
|
|
11,
|
|
1,
|
|
11,
|
|
1,
|
|
1,
|
|
1,
|
|
1,
|
|
11,
|
|
1,
|
|
1,
|
|
2,
|
|
22,
|
|
12,
|
|
11,
|
|
12,
|
|
11,
|
|
12,
|
|
11,
|
|
12,
|
|
11,
|
|
7,
|
|
0,
|
|
0,
|
|
0,
|
|
0,
|
|
0,
|
|
0,
|
|
0008,
|
|
1110,
|
|
1110,
|
|
1110,
|
|
1110,
|
|
1111,
|
|
1111,
|
|
50000008,
|
|
0,
|
|
#GOGOSTART
|
|
6,
|
|
08000000,
|
|
6,
|
|
0800,
|
|
60080006,
|
|
0,
|
|
08,
|
|
1102,
|
|
6,
|
|
08000000,
|
|
6,
|
|
0800,
|
|
60080006,
|
|
0,
|
|
0081,
|
|
10102025,
|
|
0081,
|
|
10101005,
|
|
00000008,
|
|
#GOGOEND
|
|
#BARLINEOFF
|
|
000
|
|
#BPMCHANGE 179
|
|
0,
|
|
#BPMCHANGE 184
|
|
#GOGOSTART
|
|
#BARLINEON
|
|
1110,
|
|
1220,
|
|
1110,
|
|
1220,
|
|
1110,
|
|
1220,
|
|
1110,
|
|
1220,
|
|
1110,
|
|
1220,
|
|
1110,
|
|
1220,
|
|
1110,
|
|
1220,
|
|
1110,
|
|
1220,
|
|
#GOGOSTART
|
|
7,
|
|
0,
|
|
0,
|
|
00000008,
|
|
#END
|