generated from DragonRatTiger/Custom-Charts
671 lines
6.6 KiB
Plaintext
671 lines
6.6 KiB
Plaintext
TITLE:Life
|
|
SUBTITLE:--Gen Hoshino
|
|
TITLEJA:生命体
|
|
SUBTITLEJA:星野源
|
|
PREIMAGE:Life.jpg
|
|
BGMOVIE:Life.mp4
|
|
WAVE:Life.ogg
|
|
BPM:188
|
|
OFFSET:-2.682
|
|
DEMOSTART:125.235
|
|
MAKER:Colin
|
|
|
|
COURSE:Easy
|
|
LEVEL:4
|
|
BALLOON:9
|
|
SCOREINIT:
|
|
SCOREDIFF:
|
|
NOTESDESIGNER0:Colin
|
|
|
|
#START
|
|
3010,
|
|
1,
|
|
2,
|
|
1010,
|
|
1,
|
|
1010,
|
|
2,
|
|
2020,
|
|
1010,
|
|
1,
|
|
1010,
|
|
1110,
|
|
1,
|
|
1110,
|
|
2020,
|
|
2,
|
|
1010,
|
|
1110,
|
|
2020,
|
|
1,
|
|
1010,
|
|
1110,
|
|
2020,
|
|
2022,
|
|
2020,
|
|
2220,
|
|
1010,
|
|
1,
|
|
#GOGOSTART
|
|
1020,
|
|
1120,
|
|
1020,
|
|
1020,
|
|
1020,
|
|
1120,
|
|
1020,
|
|
1010,
|
|
1020,
|
|
1120,
|
|
1010,
|
|
2,
|
|
1010,
|
|
1110,
|
|
1020,
|
|
1010,
|
|
1,
|
|
1,
|
|
5,
|
|
,
|
|
8,
|
|
1010,
|
|
#GOGOEND
|
|
3,
|
|
,
|
|
,
|
|
,
|
|
1010,
|
|
1110,
|
|
2020,
|
|
2,
|
|
#GOGOSTART
|
|
1010,
|
|
1110,
|
|
1110,
|
|
2220,
|
|
2020,
|
|
2220,
|
|
1210,
|
|
1210,
|
|
7,
|
|
,
|
|
0850,
|
|
,
|
|
8110,
|
|
1110,
|
|
2220,
|
|
1010,
|
|
1,
|
|
2010,
|
|
1,
|
|
1010,
|
|
1,
|
|
1010,
|
|
#GOGOEND
|
|
1,
|
|
2020,
|
|
2,
|
|
2020,
|
|
2,
|
|
2220,
|
|
2010,
|
|
2010,
|
|
2010,
|
|
1110,
|
|
1010,
|
|
1,
|
|
1,
|
|
1010,
|
|
1010,
|
|
1,
|
|
#GOGOSTART
|
|
1020,
|
|
1120,
|
|
1020,
|
|
1020,
|
|
1020,
|
|
1120,
|
|
1020,
|
|
1010,
|
|
1020,
|
|
1120,
|
|
1010,
|
|
2,
|
|
1010,
|
|
1110,
|
|
1020,
|
|
1010,
|
|
1,
|
|
1,
|
|
5,
|
|
,
|
|
#GOGOEND
|
|
8,
|
|
1010,
|
|
2020,
|
|
2,
|
|
6,
|
|
,
|
|
8010,
|
|
6,
|
|
#GOGOSTART
|
|
0,
|
|
0080,
|
|
2020,
|
|
2,
|
|
1120,
|
|
1020,
|
|
1020,
|
|
1120,
|
|
1020,
|
|
1120,
|
|
1020,
|
|
1120,
|
|
1020,
|
|
1120,
|
|
1020,
|
|
1010,
|
|
2,
|
|
2020,
|
|
5,
|
|
,
|
|
8,
|
|
2020,
|
|
#GOGOEND
|
|
4,
|
|
#END
|
|
|
|
COURSE:Normal
|
|
LEVEL:5
|
|
BALLOON:9
|
|
SCOREINIT:
|
|
SCOREDIFF:
|
|
NOTESDESIGNER1:Colin
|
|
|
|
#START
|
|
3010,
|
|
10111000,
|
|
2020,
|
|
10001011,
|
|
1010,
|
|
1110,
|
|
2020,
|
|
20222000,
|
|
1010,
|
|
1110,
|
|
10001011,
|
|
1110,
|
|
1020,
|
|
10101022,
|
|
2020,
|
|
2220,
|
|
10001011,
|
|
1110,
|
|
20002002,
|
|
1010,
|
|
10001011,
|
|
1110,
|
|
2020,
|
|
20222020,
|
|
2020,
|
|
2220,
|
|
1111,
|
|
1,
|
|
#GOGOSTART
|
|
10102011,
|
|
1120,
|
|
1022,
|
|
1020,
|
|
10102011,
|
|
1120,
|
|
1022,
|
|
1210,
|
|
10002011,
|
|
1120,
|
|
1011,
|
|
2010,
|
|
10001011,
|
|
1110,
|
|
1120,
|
|
10101011,
|
|
1010,
|
|
1010,
|
|
5,
|
|
,
|
|
8,
|
|
1010,
|
|
#GOGOEND
|
|
30020020,
|
|
0202,
|
|
0202,
|
|
0202,
|
|
10001011,
|
|
1110,
|
|
20002022,
|
|
2222,
|
|
#GOGOSTART
|
|
10001011,
|
|
1110,
|
|
10101110,
|
|
20202220,
|
|
20002022,
|
|
2220,
|
|
11201010,
|
|
1211,
|
|
7,
|
|
,
|
|
0850,
|
|
,
|
|
80101011,
|
|
1110,
|
|
20202022,
|
|
1011,
|
|
1011,
|
|
2010,
|
|
1,
|
|
10111010,
|
|
1,
|
|
1110,
|
|
#GOGOEND
|
|
1022,
|
|
2022,
|
|
2020,
|
|
2220,
|
|
2020,
|
|
20202022,
|
|
2011,
|
|
2011,
|
|
2010,
|
|
10101011,
|
|
1110,
|
|
1022,
|
|
1020,
|
|
1212,
|
|
1012,
|
|
1,
|
|
#GOGOSTART
|
|
10102011,
|
|
1120,
|
|
1022,
|
|
1020,
|
|
10102011,
|
|
1120,
|
|
1022,
|
|
1210,
|
|
10002011,
|
|
1120,
|
|
1011,
|
|
2010,
|
|
10001011,
|
|
1110,
|
|
1120,
|
|
10101011,
|
|
1010,
|
|
1010,
|
|
5,
|
|
,
|
|
#GOGOEND
|
|
8,
|
|
1010,
|
|
2220,
|
|
2020,
|
|
6,
|
|
,
|
|
8010,
|
|
6,
|
|
#GOGOSTART
|
|
0,
|
|
0080,
|
|
2020,
|
|
2,
|
|
10102011,
|
|
1020,
|
|
10002011,
|
|
1120,
|
|
10102011,
|
|
1120,
|
|
10002011,
|
|
1120,
|
|
10002022,
|
|
1120,
|
|
1020,
|
|
10111010,
|
|
2020,
|
|
2020,
|
|
5,
|
|
,
|
|
8,
|
|
2020,
|
|
#GOGOEND
|
|
4,
|
|
#END
|
|
|
|
COURSE:Hard
|
|
LEVEL:5
|
|
BALLOON:8,8,28,8
|
|
SCOREINIT:
|
|
SCOREDIFF:
|
|
NOTESDESIGNER2:Colin
|
|
|
|
#START
|
|
30210120,
|
|
11201020,
|
|
10210120,
|
|
1010200010222020,
|
|
10210120,
|
|
11201020,
|
|
10210120,
|
|
11201022,
|
|
10210120,
|
|
10210120,
|
|
10210120,
|
|
7080,
|
|
10210121,
|
|
01201020,
|
|
10210121,
|
|
0010200022201000,
|
|
10210120,
|
|
10210211,
|
|
20120121,
|
|
0010201020222000,
|
|
10201120,
|
|
10201120,
|
|
10201120,
|
|
10227000,
|
|
8111,
|
|
1112,
|
|
1111,
|
|
1,
|
|
#GOGOSTART
|
|
10210120,
|
|
10210111,
|
|
20201120,
|
|
22201120,
|
|
10210120,
|
|
10210120,
|
|
10201120,
|
|
1010200022201010,
|
|
10210120,
|
|
10210111,
|
|
20201120,
|
|
22201120,
|
|
10210120,
|
|
10210120,
|
|
10201120,
|
|
1010200022201010,
|
|
1212,
|
|
1212,
|
|
5,
|
|
,
|
|
80030030,
|
|
20020020,
|
|
#GOGOEND
|
|
10210120,
|
|
11210120,
|
|
11210120,
|
|
11201140,
|
|
11201121,
|
|
0010200010102022,
|
|
21700000,
|
|
,
|
|
#GOGOSTART
|
|
80210121,
|
|
01201120,
|
|
10210120,
|
|
11201020,
|
|
10210120,
|
|
10210120,
|
|
10201120,
|
|
10210120,
|
|
10210120,
|
|
11210120,
|
|
10201120,
|
|
10211212,
|
|
10210120,
|
|
10210120,
|
|
2020201110102000,
|
|
1112,
|
|
40120120,
|
|
14002010,
|
|
40140140,
|
|
1110200010102020,
|
|
30030030,
|
|
03003120,
|
|
#GOGOEND
|
|
30210121,
|
|
01201020,
|
|
10210121,
|
|
0010200022201000,
|
|
10210120,
|
|
10210211,
|
|
20120121,
|
|
0010201020222000,
|
|
10201120,
|
|
10201120,
|
|
10201120,
|
|
10227000,
|
|
8111,
|
|
1112,
|
|
1111,
|
|
1,
|
|
#GOGOSTART
|
|
10210120,
|
|
10210111,
|
|
20201120,
|
|
22201120,
|
|
10210120,
|
|
10210120,
|
|
10201120,
|
|
1010200022201010,
|
|
10210120,
|
|
10210111,
|
|
20201120,
|
|
22201120,
|
|
10210120,
|
|
10210120,
|
|
10201120,
|
|
1010200022201010,
|
|
1212,
|
|
1212,
|
|
5,
|
|
,
|
|
#GOGOEND
|
|
80210120,
|
|
100100200000202020202020,
|
|
10210120,
|
|
1010222010102000,
|
|
1010201110111011,
|
|
1010201020222000,
|
|
10210120,
|
|
100100200020002000200020,
|
|
#GOGOSTART
|
|
6,
|
|
0080,
|
|
10201120,
|
|
10201120,
|
|
10210120,
|
|
10210111,
|
|
2121,
|
|
2121,
|
|
10201120,
|
|
10210120,
|
|
10201120,
|
|
10210121,
|
|
10102102,
|
|
10120121,
|
|
10201120,
|
|
1212,
|
|
10200120,
|
|
10200120,
|
|
10201120,
|
|
10201120,
|
|
10210120,
|
|
10010010,
|
|
#GOGOEND
|
|
4,
|
|
#END
|
|
|
|
COURSE:Oni
|
|
LEVEL:8
|
|
SCOREINIT:
|
|
SCOREDIFF:
|
|
NOTESDESIGNER3:Colin
|
|
|
|
#START
|
|
3000201110102022,
|
|
1010201110102011,
|
|
2010201110102010,
|
|
0010201020112020,
|
|
1000201120102011,
|
|
1010201120102022,
|
|
11210121,
|
|
0010201120202020,
|
|
1000201110102011,
|
|
2010201011102000,
|
|
1010201110102010,
|
|
1111112220001010,
|
|
1000201110102022,
|
|
1010201110102011,
|
|
2000201011102010,
|
|
0010201022221020,
|
|
1000201010102011,
|
|
1010201020201111,
|
|
2000401000104011,
|
|
1010201022221020,
|
|
1000201010112020,
|
|
2022202010102011,
|
|
1010201110102010,
|
|
0020201122111111,
|
|
2333,
|
|
40303340,
|
|
3000300030001111,
|
|
2003,
|
|
#GOGOSTART
|
|
1010201110102011,
|
|
1010201110201010,
|
|
2011201020112011,
|
|
1010201020112020,
|
|
1000201110102011,
|
|
1010201110102000,
|
|
1010201120102011,
|
|
1010201022221010,
|
|
1010201110102010,
|
|
1010201110201010,
|
|
2000201120102011,
|
|
1010201020112020,
|
|
1010201110102010,
|
|
1010201110102000,
|
|
1010201120102011,
|
|
1010201120102010,
|
|
2010201110102011,
|
|
1010201111222020,
|
|
1000201110102011,
|
|
1010201120201120,
|
|
1000203000221020,
|
|
100000100100200010001000100010001000200020002000,
|
|
#GOGOEND
|
|
10210120,
|
|
1010201000102011,
|
|
1010201000102012,
|
|
1010201110102020,
|
|
1010201110102010,
|
|
0010200010102022,
|
|
2011212122212122,
|
|
1122112211112211,
|
|
#GOGOSTART
|
|
2010201110102011,
|
|
1010202010112010,
|
|
2010201110102011,
|
|
2010201020202211,
|
|
2010201120102011,
|
|
2010201110102011,
|
|
1010201110102011,
|
|
2012010022221111,
|
|
2210221022102210,
|
|
2022102022102022,
|
|
1020221020112211,
|
|
1111101020221211,
|
|
1111201111212120,
|
|
2211222211112211,
|
|
200000100100200200200200100010001000200010002000,
|
|
2011201120112011,
|
|
2011102011102011,
|
|
100200202020101010101010,
|
|
2011102011102011,
|
|
100000002000200000100000100000100000200000100100,
|
|
2011102012101022,
|
|
1020111020102022,
|
|
#GOGOEND
|
|
1000201110102020,
|
|
1010201110102010,
|
|
1010201110102004,
|
|
0010201110121010,
|
|
1000202010112020,
|
|
1010201110201111,
|
|
21230123,
|
|
0022101020112022,
|
|
1000201110102011,
|
|
1010201020112010,
|
|
1000201120102010,
|
|
000000100000200000100100200010002000100010001000,
|
|
1333,
|
|
30303340,
|
|
2022221112211111,
|
|
20000330,
|
|
#GOGOSTART
|
|
1010201110102011,
|
|
1010201110201010,
|
|
2011201020112011,
|
|
1010201020112020,
|
|
1000201110102011,
|
|
1010201110102000,
|
|
1010201120102011,
|
|
1010201120222010,
|
|
1010201110102010,
|
|
1010201110201010,
|
|
2000201120102011,
|
|
1010201020102220,
|
|
1010201110102010,
|
|
1010201110102000,
|
|
1010201120102011,
|
|
2010201120221020,
|
|
1000201110102000,
|
|
1010201111222010,
|
|
1000201110102010,
|
|
2010201110102020,
|
|
#GOGOEND
|
|
10230230,
|
|
100000100000200000100100200000002000100020002000,
|
|
10230230,
|
|
1010212010212012,
|
|
1010212010212010,
|
|
2101200121221122,
|
|
1010201110102011,
|
|
100100201020102010201020,
|
|
#GOGOSTART
|
|
1000201120102022,
|
|
1010201120102000,
|
|
1010201210102011,
|
|
1010201120121111,
|
|
2010201110102011,
|
|
2010202210102011,
|
|
2010201110102011,
|
|
100000002000100020000000100000200200200020002000,
|
|
1010201120102022,
|
|
1010201120102020,
|
|
1010201120102011,
|
|
2010201110221111,
|
|
2010201110102011,
|
|
1010201120102000,
|
|
1010201110102022,
|
|
100000100100100020002000200020001000100010001000,
|
|
2010201110102011,
|
|
1010201110102022,
|
|
1010201110102011,
|
|
2010201111222022,
|
|
1010201110102010,
|
|
2210112210121121,
|
|
#GOGOEND
|
|
2,
|
|
#END
|