generated from DragonRatTiger/Custom-Charts
309 lines
2.8 KiB
Plaintext
309 lines
2.8 KiB
Plaintext
TITLE:Nomad
|
|
SUBTITLE:--balloon (Keina Suda) / Project SEKAI COLORFUL STAGE!
|
|
TITLEJA:ノマド
|
|
SUBTITLEJA:バルーン (須田景凪) 「プロジェクトセカイ カラフルステージ!」より
|
|
PREIMAGE:Nomad.png
|
|
BGMOVIE:Nomad.mp4
|
|
WAVE:Nomad.ogg
|
|
BPM:180
|
|
OFFSET:-2.051
|
|
DEMOSTART:56.384
|
|
MAKER:Colin
|
|
|
|
COURSE:Easy
|
|
LEVEL:2
|
|
SCOREINIT:
|
|
SCOREDIFF:
|
|
NOTESDESIGNER0:Colin
|
|
|
|
#START
|
|
2,
|
|
2,
|
|
2020,
|
|
2,
|
|
2,
|
|
2020,
|
|
2,
|
|
#GOGOSTART
|
|
1,
|
|
1010,
|
|
1,
|
|
1,
|
|
1,
|
|
1010,
|
|
1,
|
|
1,
|
|
#GOGOEND
|
|
2,
|
|
2,
|
|
2,
|
|
2,
|
|
2020,
|
|
2,
|
|
2,
|
|
2,
|
|
1010,
|
|
1,
|
|
1,
|
|
1010,
|
|
1,
|
|
1010,
|
|
1,
|
|
1010,
|
|
1,
|
|
1010,
|
|
1010,
|
|
1,
|
|
1010,
|
|
1010,
|
|
1,
|
|
,
|
|
2020,
|
|
2,
|
|
#GOGOSTART
|
|
6083,
|
|
6083,
|
|
3033,
|
|
3,
|
|
2022,
|
|
0025,
|
|
0800,
|
|
1010,
|
|
6083,
|
|
6083,
|
|
3033,
|
|
3,
|
|
2020,
|
|
2,
|
|
2020,
|
|
1011,
|
|
#GOGOEND
|
|
1010,
|
|
1010,
|
|
1,
|
|
000000000002,
|
|
#END
|
|
|
|
COURSE:Normal
|
|
LEVEL:3
|
|
SCOREINIT:
|
|
SCOREDIFF:
|
|
NOTESDESIGNER1:Colin
|
|
|
|
#START
|
|
2,
|
|
2,
|
|
2020,
|
|
2,
|
|
2,
|
|
2022,
|
|
2,
|
|
#GOGOSTART
|
|
1011,
|
|
1010,
|
|
1011,
|
|
1010,
|
|
1011,
|
|
1010,
|
|
1011,
|
|
1020,
|
|
#GOGOEND
|
|
2,
|
|
2020,
|
|
2,
|
|
2020,
|
|
2022,
|
|
2020,
|
|
2,
|
|
2010,
|
|
1110,
|
|
1010,
|
|
1011,
|
|
1010,
|
|
1020,
|
|
1110,
|
|
1,
|
|
1011,
|
|
1010,
|
|
1110,
|
|
1011,
|
|
1010,
|
|
1010,
|
|
1110,
|
|
1010,
|
|
1010,
|
|
2020,
|
|
2220,
|
|
#GOGOSTART
|
|
6083,
|
|
6083,
|
|
3333,
|
|
3022,
|
|
2022,
|
|
2025,
|
|
0811,
|
|
1110,
|
|
6083,
|
|
6083,
|
|
3333,
|
|
3010,
|
|
2120,
|
|
2120,
|
|
2120,
|
|
1011,
|
|
#GOGOEND
|
|
1011,
|
|
1011,
|
|
1,
|
|
000000000002,
|
|
#END
|
|
|
|
COURSE:Hard
|
|
LEVEL:4
|
|
SCOREINIT:
|
|
SCOREDIFF:
|
|
NOTESDESIGNER2:Colin
|
|
|
|
#START
|
|
1,
|
|
1,
|
|
1020,
|
|
1,
|
|
2,
|
|
100001100100,
|
|
2,
|
|
#GOGOSTART
|
|
102201000000,
|
|
102201001100,
|
|
102201000000,
|
|
102201001100,
|
|
102201000000,
|
|
102201001100,
|
|
102201000000,
|
|
102201001100,
|
|
#GOGOEND
|
|
100000000020200000200500,
|
|
000000800001,
|
|
100001101101,
|
|
0020,
|
|
2222,
|
|
200202002200,
|
|
200000201101,
|
|
1212,
|
|
102201000100,
|
|
102201000100,
|
|
200002202202,
|
|
000000200101,
|
|
1111,
|
|
200202002000,
|
|
1020,
|
|
1120,
|
|
1010,
|
|
1110,
|
|
100101100101,
|
|
1020,
|
|
100101100101,
|
|
1111,
|
|
100101100100,
|
|
1010,
|
|
200002200000,
|
|
2221,
|
|
#GOGOSTART
|
|
6083,
|
|
6083,
|
|
3333,
|
|
300001101101,
|
|
000000200201,
|
|
100102200500,
|
|
0812,
|
|
100001100200,
|
|
6083,
|
|
6083,
|
|
3333,
|
|
300001101101,
|
|
000000200201,
|
|
100102200500,
|
|
0812,
|
|
100001101000,
|
|
#GOGOEND
|
|
200000200002,
|
|
2222,
|
|
2,
|
|
000000000002,
|
|
#END
|
|
|
|
COURSE:Oni
|
|
LEVEL:8
|
|
BALLOON:10,10,10,12
|
|
SCOREINIT:
|
|
SCOREDIFF:
|
|
NOTESDESIGNER3:Colin
|
|
|
|
#START
|
|
1020,
|
|
1020,
|
|
1020,
|
|
1020,
|
|
1020,
|
|
100001100111,
|
|
2,
|
|
#GOGOSTART
|
|
102201201200,
|
|
101101202101,
|
|
101202201101,
|
|
102101201202,
|
|
201201201201,
|
|
101202202101,
|
|
202101202101,
|
|
202101200102,
|
|
#GOGOEND
|
|
100001200201,
|
|
100100200102,
|
|
200101202101,
|
|
100020100111200020100010,
|
|
100100102201,
|
|
202101202201,
|
|
200101202202,
|
|
102101202102,
|
|
101201202201,
|
|
101201201211,
|
|
101201202212,
|
|
102101201101,
|
|
202201102202,
|
|
200101201122,
|
|
101101202101,
|
|
100100201102,
|
|
100222100222,
|
|
102101700008,
|
|
202222101222,
|
|
200100700008,
|
|
200222100222,
|
|
101101700008,
|
|
202111200111,
|
|
2270,
|
|
800001100201,
|
|
1221,
|
|
#GOGOSTART
|
|
400100300101,
|
|
100101202100,
|
|
200101201200,
|
|
200101201102,
|
|
100100200102,
|
|
101202200200,
|
|
111201202111,
|
|
201211211211,
|
|
400100300101,
|
|
100101202100,
|
|
200101201200,
|
|
200101201101,
|
|
200111200111,
|
|
201202101202,
|
|
101111202111,
|
|
201211201202,
|
|
#GOGOEND
|
|
200000200101,
|
|
1222,
|
|
100000000001,
|
|
100200200002,
|
|
#END
|