Files
Colins_Custom_Charts/01 Pop/Popcorn/Popcorn.tja
T
2025-12-20 15:48:32 -05:00

567 lines
5.8 KiB
Plaintext

TITLE:Popcorn!!
SUBTITLE:--Sasuke Haruguchi feat. Hello Kitty & Narumiya
TITLEJA:ポップコーン!!
SUBTITLEJA:原口沙輔 feat. ハローキティ、なるみや
PREIMAGE:Popcorn.jpg
BGMOVIE:Popcorn.mp4
WAVE:Popcorn.ogg
BPM:175
OFFSET:-6.688
DEMOSTART:55.373
MAKER:Colin
COURSE:Easy
LEVEL:3
SCOREINIT:
SCOREDIFF:
NOTESDESIGNER0:Colin
#START
,
30003003,
,
2020,
2220,
1010,
1110,
2020,
2220,
1010,
,
#GOGOSTART
3010,
1110,
2020,
2220,
1010,
1110,
1010,
,
#GOGOEND
1010,
1,
20002002,
,
10001011,
00001001,
00002002,
,
10001001,
,
20002002,
00000001,
00001001,
00000001,
00001005,
,
80003003,
00
#GOGOSTART
303001,
0110,
00002002,
00001003,
00000003,
00000003,
00030003,
00000002,
0220,
20002002,
00002002,
,
1010,
10000002,
00020202,
0
#GOGOEND
0000000,
4020,
2,
2020,
2,
2020,
2,
2020,
3030,
3010,
1110,
2,
,
2020,
2220,
,
,
,
2020,
1110,
2020,
1110,
2020,
1110,
20002002,
,
3,
1,
,
,
2020,
2,
,
00003330,
20002002,
00002002,
00002002,
,
20002002,
00002002,
00002002,
00003003,
00
#GOGOSTART
303001,
0110,
00002002,
00001003,
00000003,
00000003,
00030003,
00000002,
0220,
20002002,
00002002,
,
1010,
10000002,
00020202,
0
#GOGOEND
0000000,
#GOGOSTART
4020,
2,
1011,
1010,
5,
8,
3030,
3030333
#GOGOEND
3,
#END
COURSE:Normal
LEVEL:4
SCOREINIT:
SCOREDIFF:
NOTESDESIGNER1:Colin
#START
,
30003003,
,
2022,
20222000,
1010,
10111000,
2020,
20222000,
1010,
,
#GOGOSTART
3110,
10111000,
2220,
20222000,
1110,
10111000,
1110,
10101110,
#GOGOEND
10001001,
1020,
20002002,
2020,
10001011,
10001001,
10002002,
2,
10101001,
0011,
20002002,
00002001,
00101001,
00011001,
00001015,
,
80003003,
00
#GOGOSTART
313001,
00111000,
10202002,
00001003,
00111003,
00111003,
00030003,
00000002,
20202002,
20202002,
00002022,
0220,
10111010,
10001002,
00022222,
0
#GOGOEND
0000000,
4020,
20222000,
2020,
2220,
2020,
20222000,
2020,
3030,
3110,
10111010,
20002002,
0222,
2020,
20202220,
10001001,
0011,
1,
2220,
10111000,
2220,
10111000,
2220,
10111000,
20202002,
,
3010,
1,
,
,
2022,
2020,
,
00003330,
20202002,
00002022,
00002002,
0022,
20002022,
00002002,
00002002,
00003003,
00
#GOGOSTART
303001,
00111001,
00002002,
00201003,
00001003,
00001013,
00030013,
00002002,
00202002,
20222002,
00202002,
0020,
1011,
10001002,
00020202,
0
#GOGOEND
0000000,
#GOGOSTART
40002002,
2220,
10001011,
1011,
5,
8,
3030,
3030333
#GOGOEND
3,
#END
COURSE:Hard
LEVEL:6
SCOREINIT:
SCOREDIFF:
NOTESDESIGNER2:Colin
#START
,
30003004,
00444430,
30001101,
11012040,
30304400,
10222000,
30001101,
11012040,
30304400,
4340,
#GOGOSTART
4000200020020010,
21222100,
2000200020020010,
21222100,
4000200020020010,
21222100,
2000200020020010,
21222100,
#GOGOEND
10200021,
01210120,
10201021,
0010201110201020,
10200021,
01210121,
00211021,
0010201110201020,
30012001,
1120,
10112001,
01120201,
01201102,
01210121,
01211126,
,
80003333,
03
#GOGOSTART
444002,
0011102010101020,
01111022,
02121002,
01221201,
01221221,
00120021,
00021201,
01222221,
01122221,
01220112,
01210000,
22220202,
02220102,
02012222,
0
#GOGOEND
2012333,
2000200020020010,
21222100,
2000200020020010,
21222100,
4000200020020010,
21222100,
2000200020020010,
4340,
0020202010020010,
0011111110101010,
22222222,
02222222,
1020101010020020,
21111122,
22222222,
02222220,
3,
4000400022220000,
1110101010000000,
2020102011110000,
2222220010000000,
2020202011010000,
22122000,
12222221,
22211011,
20012101,
01012000,
10112101,
10212100,
20112011,
0210,
1010200022201110,
00003333,
0022200020201020,
0022200010200020,
02102211,
0011101010200020,
01011112,
01020111,
0022202000002010,
10113333,
03
#GOGOSTART
444002,
0011102010101020,
01111022,
02121002,
01221201,
01221221,
00120021,
00021201,
01222221,
01122221,
01220112,
01210000,
22220202,
02220102,
02012222,
0
#GOGOEND
2012333,
#GOGOSTART
2000200020020010,
21222100,
2000200020020010,
21222100,
2000200020020010,
21222100,
2000200020020010,
3030334
#GOGOEND
3,
#END
COURSE:Oni
LEVEL:9
SCOREINIT:
SCOREDIFF:
NOTESDESIGNER3:Colin
#START
,
34334334,
00444340,
21002200,
11222000,
2100210020200000,
10222000,
21002200,
11222000,
2100210012222211,
20304343,
#GOGOSTART
3010201120120120,
1011202022101022,
1010201120120120,
1011202022101022,
1010201120120120,
1011202022101022,
1010201120120120,
1010201110102010,
#GOGOEND
3010201010120220,
1020202010110120,
1020202020220210,
1020201110201020,
1020202020210110,
1021202010210110,
1020102010111110,
0020202112212010,
1010102020220210,
1020201122112211,
2020102020210210,
11120204,
0010201020221120,
0010201011222210,
0011202010102040,
000300400300000100200111,
200200111200300300300300,
0012
#GOGOSTART
102010111010,
0012102010112010,
0010201120102010,
0011202210201020,
3010202210201010,
0010201210202010,
0010201110102010,
0010201110202030,
0011102010212010,
0011102020212010,
0020102120102010,
0011202210201020,
3010202210201020,
0010201210202010,
0010201110102020,
0
#GOGOEND
2012343,
3010201120120120,
1011202022101022,
1010201120120120,
1011202022101122,
1010201120120120,
1011202022101022,
1010201012222211,
2000300040304011,
1020202210120110,
1022112220102011,
1010201120102011,
1010202210201020,
3020201210220120,
2011101110202021,
1010201210102011,
1011201210201122,
1000000020202222,
2010201022210120,
1210101110201211,
2010201212120120,
2222220210201211,
2020201212010120,
1020112010201122,
1020202210101040,
0020201010001011,
21002200,
11222000,
10112112,
0010201020221000,
2100210020200000,
11222020,
1010200012222221,
21104343,
0022200020102010,
0022202011201020,
0022200020102010,
0011102010200010,
01021122,
01020111,
0012001022001022,
200200111200300300300300,
0012
#GOGOSTART
102010111010,
0012102010112010,
0010201120102010,
0011202210201020,
3010202210201010,
0010201210202010,
0010201110102010,
0010201110202030,
0011102010212010,
0011102020212010,
0020102120102010,
0011202210201020,
3010202210201020,
0010201210202010,
0010201110102020,
0
#GOGOEND
2012343,
#GOGOSTART
3010201120120120,
1011202022101022,
1010201120120120,
1011202022101122,
1010201120120120,
1011202022101022,
1010201020120210,
20102022103040
#GOGOEND
30,
#END