Files
Colins_Custom_Charts/02 Anime/Busted/Busted.tja
T
2025-06-11 19:53:16 -04:00

116 lines
2.5 KiB
Plaintext

TITLE:Busted
TITLEJA:Busted
SUBTITLE:--Ashley Tisdale & Olivia Olson / Phineas & Ferb
SUBTITLEJA:Ashley Tisdale & Olivia Olson「Phineas & Ferb」より
BPM:204
WAVE:Busted.ogg
PREIMAGE:Busted.jpg
OFFSET:0.184
DEMOSTART:37.941
MAKER:Colin
COURSE:Oni
LEVEL: 8
BALLOON:5
SCOREINIT:400
SCOREDIFF:100
NOTESDESIGNER3:Colin
#START
#SCROLL .75
0,
10000100200002001000010010000200,
10000100200002001000010020000200,
10000100200002001000010010000200,
10000100200002001000010020000200,
10000000200000001000010020001000,
00000100200001001000000020000100,
10000000200000001000010020001000,
00000100200001001000000020000000,
10000000200000001000010020001000,
00000100200001001000000020000000,
10000000200000001000010020001000,
00000100200001001000020010000100,
20000100100001002000020020000200,
10000100100001001000010020000200,
10000000200002001000101020007000,
00000000000080000000020010000200,
10201021,
00000100200010000000010020000000,
1212,
1222,
10000000
#GOGOSTART
100001001000020010000100,
20000200100010000000000010000200,
10000200100001001000020010000000,
22020202,
1000300030003004,
0333,
#GOGOEND
0000000000001111,
20001212,
#GOGOSTART
10000000100001001000020010000100,
20000200100002001000000010000200,
10000200100001001000020010000000,
20000100200010002000200010002000,
1212,
10000000200000001000100000000100,
10000200100000002000000010002000,
02020000,
10000000100001001000020010000100,
20000200100002001000000010000200,
10000200100001001000020010000200,
20000100200000001000100000002000,
1212,
10000000200000001000100000000100,
10000200100000002000000010002000,
00002000200002001000000020000000,
33
#GOGOEND
00,
0,
10000000200000001000010020001000,
00000100200001001000000020000100,
10000000200000001000010020001000,
00000100200001001000000020000000,
10000000200000001000010020001000,
00000100200001001000000020000000,
10000000200000001000010020001000,
00000100200001001000020010000100,
10000000100000001000000020000200,
10000000000000000000000010000100,
20102201,
00000000000000000000000010000200,
1002005000000000,
0008,
12050000,
0008,
3333,
4333,
#GOGOSTART
10000000100001001000020010000100,
20000200100002001000000010000200,
10000200100001001000020010000000,
20000100200010002000200010002000,
1212,
10000000200000001000100000000100,
10000200100000002000000010002000,
02020000,
10000000100001001000020010000100,
20000200100002001000000010000200,
10000200100001001000020010000200,
20000100200000001000100000002000,
1212,
10000000200000001000100000000100,
10000200100000002000000010002000,
00002000200002001000000020000000,
33
#GOGOEND
00,
#END