Files
Colins_Custom_Charts/02 Anime/Long shot/Long shot.tja
T
2025-06-11 19:53:16 -04:00

306 lines
3.2 KiB
Plaintext
Raw Blame History

This file contains ambiguous Unicode characters
This file contains Unicode characters that might be confused with other characters. If you think that this is intentional, you can safely ignore this warning. Use the Escape button to reveal them.
TITLE:Long shot
TITLEJA:Long shot
SUBTITLE:--Mayu Maeshima / Re:Zero -Starting Life in Another World- 2nd Season
SUBTITLEJA:前島まゆ「Re:ゼロから始める異世界生活 2期」より
BPM:135
WAVE:Long shot.ogg
OFFSET:-2.285
DEMOSTART:55.173
MAKER:Colin
COURSE:Oni
LEVEL:8
BALLOON:
SCOREINIT:
SCOREDIFF:
NOTESDESIGNER3:Colin
#START
300000100000200000200000200000100100200000101010,
2021021012102222,
#GOGOSTART
#SCROLL 1.3
1020102012201020,
1021222210112122,
1020102012201020,
2212112210210210,
#GOGOEND
#SCROLL .9
1000102010011020,
1022102010121020,
1022102010001020,
1020100010001012,
1000201010012011,
1022102010102000,
10101021,
1000222222221010,
#SCROLL .5
3
#SCROLL 1
0002000102100
#SCROLL .5
30,
#SCROLL 1
01211110
#SCROLL .5
30030030,
#SCROLL 1
0120102210210121,
100000100100200000100200201010101000100010001000,
#SCROLL 1.1
1011201121112011,
2101201020112010,
0,
#SCROLL 1.2
2112112112112220,
#SCROLL .5
3030
#SCROLL 1
201121112010,
#SCROLL .5
3030
#SCROLL 1
201000102120,
#SCROLL .5
3030
#SCROLL 1
202210102000,
1211211111212210,
1011201020102000,
1021021012112012,
#SCROLL 1.1
1011212121212120,
#SCROLL .7
100
#SCROLL .8
100
#SCROLL .9
10
#SCROLL 1
10
#SCROLL 1.2
2
#SCROLL 1.24
1
#SCROLL 1.25
1
#SCROLL 1.28
1
#SCROLL 1.29
20,
#SCROLL 1.3
#GOGOSTART
1022102010212011,
1011202210112022,
1011211120212012,
1011201120112000,
5000000000801122,
1022102210205000,
00000008,
1012101122222221,
2011201110212011,
2012201020121010,
30303033,
2011203030303030,
6000000080112020,
0021205000000000,
0008,
1011200020202210,
#SCROLL .9
#GOGOEND
60000008,
3003003003003030,
#END
COURSE:Hard
LEVEL:5
BALLOON:15
SCOREINIT:
SCOREDIFF:
NOTESDESIGNER2:Colin
#START
3010102010102011,
1011002060803000,
#GOGOSTART
12102120,
12102120,
12102120,
1012012010010010,
#GOGOEND
1000100010010010,
01221120,
10101011,
01101120,
1000100010020010,
01222110,
1000100010010020,
01508000,
3000300030030030,
0330303030030030,
0220202050820222,
0220202050000080,
3000300030030030,
0330303030030030,
0010201102012010,
50000008,
33222222,
33220220,
33222222,
700000000008,
12101212,
10121012,
11111111,
0,
#GOGOSTART
3030303030030030,
0030303030030030,
03300033,
03333030,
6,
0,
0,
8000000022202220,
3030303030030030,
0030303030030030,
30303033,
00033333,
6,
0,
0,
8000000000001111,
#GOGOEND
50000008,
3003003003003030,
#END
COURSE:Normal
LEVEL:5
BALLOON:10
SCOREINIT:
SCOREDIFF:
NOTESDESIGNER1:Colin
#START
31102020,
20226830,
#GOGOSTART
1122,
1122,
1122,
5000008010010010,
#GOGOEND
1110,
1110,
1110,
1110,
1110,
1220,
10101002,
01508000,
30303003,
0030303030030030,
0020202050820002,
02225008,
3000300030030030,
0030303030030030,
01210000,
50000008,
33000000,
33000000,
33000000,
700000000008,
12100000,
10121012,
1110,
0,
#GOGOSTART
3000300030030030,
0030003030030030,
03300033,
03033030,
6,
0,
0,
8,
3000300030030030,
0030003030030030,
30303033,
00030303,
6,
0,
0,
8,
#GOGOEND
50000008,
3003003003003030,
#END
COURSE:Easy
LEVEL:1
BALLOON:5
SCOREINIT:
SCOREDIFF:
NOTESDESIGNER0:Colin
#START
3,
00000300,
#GOGOSTART
1,
1,
1,
50081000,
#GOGOEND
1,
1,
1,
1,
1,
1,
1,
0580,
30000003,
0030000030030030,
05000000,
00000008,
30003003,
0030000030030030,
0,
50000008,
3,
3,
3,
50000008,
1100,
1100,
11,
0,
#GOGOSTART
3,
33,
3,
3033,
6,
0,
0,
8,
33,
33,
30003003,
00000003,
6,
0,
0,
8,
#GOGOEND
50000008,
60000008,
#END