generated from DragonRatTiger/Custom-Charts
448 lines
4.5 KiB
Plaintext
448 lines
4.5 KiB
Plaintext
TITLE:Our
|
|
SUBTITLE:--Eve / My Hero Academia
|
|
TITLEJA:ぼくらの
|
|
SUBTITLEJA:Eve 「僕のヒーローアカデミア」より
|
|
BPM:183
|
|
OFFSET:-0.275
|
|
DEMOSTART:43.335
|
|
WAVE:Our.ogg
|
|
MAKER:Colin & Shoxk
|
|
|
|
COURSE:Edit
|
|
LEVEL:9
|
|
BALLOON:15,16,7,60
|
|
SCOREINIT:
|
|
SCOREDIFF:
|
|
NOTESDESIGNER4:Shoxk
|
|
|
|
#START
|
|
20000002,
|
|
0020,
|
|
7,
|
|
00000008,
|
|
#GOGOSTART
|
|
3010200210102022,
|
|
1010201211102022,
|
|
1010200210102022,
|
|
1011201211102011,
|
|
1010200210102022,
|
|
1010201211112012,
|
|
100100200000200000101010200000100100200200200000,
|
|
#GOGOEND
|
|
1,
|
|
00000121,
|
|
00121212,
|
|
1020102010201022,
|
|
10121212,
|
|
1020102010201022,
|
|
100000100200100000100100200000102020100000700000,
|
|
00000008,
|
|
3000102210221012,
|
|
1022102210221212,
|
|
1022102210221012,
|
|
1022102210221222,
|
|
1022101210221012,
|
|
1022101210221212,
|
|
100100200000200000101010200000200000100000400000,
|
|
0020102210222211,
|
|
10230230,
|
|
23013000,
|
|
#MEASURE 7/4
|
|
100000100000100000100000300000300000300000200200100000100100202020100100100100100100,
|
|
#MEASURE 5/4
|
|
1023032127,
|
|
0000008140,
|
|
#MEASURE 4/4
|
|
#GOGOSTART
|
|
3010200211102011,
|
|
1011201211102022,
|
|
1010200211102011,
|
|
1011201211112020,
|
|
1010220210112021,
|
|
1011220210102022,
|
|
100000400000200000100100200000101010100000400000,
|
|
0022121211221211,
|
|
1010220211102011,
|
|
1011201211112010,
|
|
1010220211102011,
|
|
1011201211112022,
|
|
1010220210102210,
|
|
1011220210112021,
|
|
100000400000200000100200200000101010100000400000,
|
|
0040104012221222,
|
|
#GOGOEND
|
|
1000101120200030,
|
|
0010201120112020,
|
|
1010201000102022,
|
|
200020002000200000100000000000100000200200200200,
|
|
1011220211102010,
|
|
0020101120111010,
|
|
2011201120112050,
|
|
00000008,
|
|
#GOGOSTART
|
|
3010200210102022,
|
|
1010201211102022,
|
|
1010200210102022,
|
|
1011201212102011,
|
|
1010200210102022,
|
|
1010201212112012,
|
|
122020112011
|
|
#GOGOEND
|
|
2270,
|
|
,
|
|
,
|
|
,
|
|
0080,
|
|
#END
|
|
|
|
COURSE:Oni
|
|
LEVEL:8
|
|
BALLOON:60
|
|
SCOREINIT:
|
|
SCOREDIFF:
|
|
NOTESDESIGNER3:Colin
|
|
|
|
#START
|
|
10002011,
|
|
00012000,
|
|
10000001,
|
|
,
|
|
#GOGOSTART
|
|
11211121,
|
|
11210121,
|
|
1011102010102010,
|
|
0010201020102022,
|
|
1022202010102010,
|
|
01212121,
|
|
0020121111102010,
|
|
#GOGOEND
|
|
10120102,
|
|
01020121,
|
|
10121212,
|
|
1020100010001022,
|
|
10101012,
|
|
100200100100100020102020,
|
|
10122212,
|
|
,
|
|
1000102010201022,
|
|
1022102010221022,
|
|
1020102210111020,
|
|
1022102012112022,
|
|
1022102210201122,
|
|
1022102010222210,
|
|
21221212,
|
|
0010001120101010,
|
|
10010210,
|
|
0010001120000000,
|
|
1010101010102022,
|
|
1022111120102000,
|
|
100200000100200100200010,
|
|
001000200020002000200100,
|
|
22
|
|
#GOGOSTART
|
|
102111,
|
|
2010001020221010,
|
|
2020100020121010,
|
|
2010001020121210,
|
|
2010100020121010,
|
|
2010001020221010,
|
|
2000102000112010,
|
|
2010001020101211,
|
|
11102111,
|
|
2010001020121010,
|
|
2010100020121010,
|
|
2010001020121210,
|
|
2010100020121010,
|
|
2010201020121010,
|
|
2010102020112010,
|
|
2010002010102122,
|
|
1011
|
|
#GOGOEND
|
|
100020102010,
|
|
01212121,
|
|
22102121,
|
|
21212121,
|
|
2011101020121010,
|
|
2010001020121010,
|
|
21212121,
|
|
2,
|
|
00
|
|
#GOGOSTART
|
|
112111,
|
|
21112101,
|
|
2010101110201010,
|
|
21012121,
|
|
2022102220201010,
|
|
21012121,
|
|
2010002012111110,
|
|
#GOGOEND
|
|
27000000,
|
|
,
|
|
,
|
|
0008,
|
|
#END
|
|
|
|
COURSE:Hard
|
|
LEVEL:5
|
|
BALLOON:30
|
|
SCOREINIT:
|
|
SCOREDIFF:
|
|
NOTESDESIGNER2:Colin
|
|
|
|
#START
|
|
10002011,
|
|
00012000,
|
|
10000001,
|
|
,
|
|
#GOGOSTART
|
|
11210121,
|
|
11210121,
|
|
0011102010002010,
|
|
01210120,
|
|
1022202010102010,
|
|
01210121,
|
|
02111112,
|
|
#GOGOEND
|
|
00120102,
|
|
01020101,
|
|
00120202,
|
|
01010112,
|
|
00110102,
|
|
02010111,
|
|
10021012,
|
|
,
|
|
10120212,
|
|
02020210,
|
|
10120012,
|
|
02111020,
|
|
12101210,
|
|
12121011,
|
|
20221012,
|
|
01012111,
|
|
10010210,
|
|
01012000,
|
|
11101120,
|
|
10112020,
|
|
12012050,
|
|
00000082,
|
|
22
|
|
#GOGOSTART
|
|
304303,
|
|
03060080,
|
|
43003403,
|
|
03060008,
|
|
21001201,
|
|
21012210,
|
|
20120120,
|
|
43030403,
|
|
03304303,
|
|
03060080,
|
|
43004303,
|
|
03060008,
|
|
21002101,
|
|
2010200100100010,
|
|
20120121,
|
|
01021111,
|
|
1011
|
|
#GOGOEND
|
|
100020102010,
|
|
01212021,
|
|
20102120,
|
|
21202120,
|
|
2011101000101000,
|
|
21012101,
|
|
21012101,
|
|
2,
|
|
00
|
|
#GOGOSTART
|
|
112101,
|
|
21112101,
|
|
2010001110201000,
|
|
21012101,
|
|
2020002220201000,
|
|
21012101,
|
|
21021111,
|
|
#GOGOEND
|
|
27000000,
|
|
,
|
|
,
|
|
0008,
|
|
#END
|
|
|
|
|
|
COURSE:Normal
|
|
LEVEL:2
|
|
BALLOON:
|
|
SCOREINIT:
|
|
SCOREDIFF:
|
|
NOTESDESIGNER1:Colin
|
|
|
|
#START
|
|
#MEASURE 16/4
|
|
0000,
|
|
#MEASURE 4/4
|
|
#GOGOSTART
|
|
1110,
|
|
1110,
|
|
1110,
|
|
1110,
|
|
1110,
|
|
1110,
|
|
1010,
|
|
#GOGOEND
|
|
2,
|
|
2,
|
|
2020,
|
|
2,
|
|
2020,
|
|
2,
|
|
2020,
|
|
2,
|
|
1110,
|
|
1110,
|
|
1110,
|
|
1110,
|
|
1010,
|
|
1010,
|
|
1010,
|
|
1,
|
|
2022,
|
|
2020,
|
|
0010,
|
|
0001,
|
|
0005,
|
|
0008,
|
|
0
|
|
#GOGOSTART
|
|
111,
|
|
0111,
|
|
0111,
|
|
0111,
|
|
0111,
|
|
0111,
|
|
0111,
|
|
5,
|
|
8111,
|
|
0111,
|
|
0111,
|
|
0111,
|
|
0222,
|
|
0222,
|
|
0202,
|
|
0202,
|
|
0
|
|
#GOGOEND
|
|
200,
|
|
2,
|
|
0202,
|
|
0200,
|
|
0222,
|
|
0222,
|
|
0111,
|
|
,
|
|
0
|
|
#GOGOSTART
|
|
111,
|
|
0111,
|
|
0111,
|
|
0111,
|
|
0212,
|
|
0121,
|
|
0100,
|
|
#GOGOEND
|
|
5,
|
|
,
|
|
,
|
|
0008,
|
|
#END
|
|
|
|
|
|
COURSE:Easy
|
|
LEVEL:1
|
|
BALLOON:
|
|
SCOREINIT:
|
|
SCOREDIFF:
|
|
NOTESDESIGNER0:Colin
|
|
|
|
|
|
#START
|
|
#MEASURE 16/4
|
|
0000,
|
|
#MEASURE 4/4
|
|
#GOGOSTART
|
|
1,
|
|
1,
|
|
1,
|
|
,
|
|
1,
|
|
1,
|
|
1,
|
|
#GOGOEND
|
|
2,
|
|
,
|
|
2,
|
|
,
|
|
2,
|
|
,
|
|
2,
|
|
2,
|
|
1,
|
|
1,
|
|
1,
|
|
1,
|
|
1,
|
|
1,
|
|
1,
|
|
2,
|
|
1,
|
|
0050,
|
|
0080,
|
|
,
|
|
,
|
|
,
|
|
0
|
|
#GOGOSTART
|
|
010,
|
|
0010,
|
|
0010,
|
|
,
|
|
0020,
|
|
0020,
|
|
0020,
|
|
,
|
|
0010,
|
|
0010,
|
|
0010,
|
|
,
|
|
0020,
|
|
0020,
|
|
0020,
|
|
,
|
|
0
|
|
#GOGOEND
|
|
010,
|
|
,
|
|
,
|
|
,
|
|
0101,
|
|
0100,
|
|
0101,
|
|
0100,
|
|
0
|
|
#GOGOSTART
|
|
100,
|
|
0100,
|
|
0100,
|
|
0100,
|
|
0100,
|
|
0100,
|
|
0100,
|
|
#GOGOEND
|
|
5,
|
|
,
|
|
,
|
|
0008,
|
|
#END
|
|
|
|
|