generated from DragonRatTiger/Custom-Charts
680 lines
6.4 KiB
Plaintext
680 lines
6.4 KiB
Plaintext
TITLE:Accelerate
|
|
SUBTITLE:--Yasei Yoshida feat. Miku Hatsune / Project SEKAI COLORFUL STAGE!
|
|
TITLEJA:アクセラレイト
|
|
SUBTITLEJA:吉田夜世 feat. 初音ミク 「プロジェクトセカイ カラフルステージ!」より
|
|
PREIMAGE:Accelerate.png
|
|
BGMOVIE:Accelerate.mp4
|
|
WAVE:Accelerate.ogg
|
|
BPM:170
|
|
OFFSET:-1.444
|
|
DEMOSTART:60.032
|
|
GENRE:ボカロイード
|
|
MAKER:Colin
|
|
|
|
COURSE:Easy
|
|
LEVEL:4
|
|
NOTESDESIGNER0:Colin
|
|
|
|
#START
|
|
#GOGOSTART
|
|
3,
|
|
3,
|
|
3,
|
|
3,
|
|
#GOGOEND
|
|
11,
|
|
1110,
|
|
5008,
|
|
,
|
|
#MEASURE 8/4
|
|
4,
|
|
#MEASURE 4/4
|
|
#GOGOSTART
|
|
11,
|
|
1110,
|
|
11,
|
|
1,
|
|
22,
|
|
2220,
|
|
2000200
|
|
#GOGOEND
|
|
0,
|
|
#GOGOSTART
|
|
20
|
|
#GOGOEND
|
|
0
|
|
#GOGOSTART
|
|
00
|
|
#GOGOEND
|
|
0
|
|
#GOGOSTART
|
|
00
|
|
#GOGOEND
|
|
0
|
|
#GOGOSTART
|
|
00
|
|
#GOGOEND
|
|
0
|
|
#GOGOSTART
|
|
0000,
|
|
#GOGOEND
|
|
3,
|
|
1,
|
|
1011,
|
|
1,
|
|
2,
|
|
2,
|
|
2022,
|
|
2,
|
|
3,
|
|
11,
|
|
1,
|
|
,
|
|
4,
|
|
22,
|
|
2,
|
|
11,
|
|
2,
|
|
2,
|
|
2,
|
|
22,
|
|
2,
|
|
22,
|
|
2022,
|
|
2,
|
|
#GOGOSTART
|
|
30030000,
|
|
30030000,
|
|
31,
|
|
1111,
|
|
1,
|
|
22,
|
|
20005858,
|
|
58585080,
|
|
30030000,
|
|
30030000,
|
|
31,
|
|
1111,
|
|
1,
|
|
22,
|
|
5,
|
|
8,
|
|
31,
|
|
1110,
|
|
11,
|
|
10000000000
|
|
#GOGOEND
|
|
00000,
|
|
#GOGOSTART
|
|
22,
|
|
2220,
|
|
2000200
|
|
#GOGOEND
|
|
0,
|
|
#GOGOSTART
|
|
30
|
|
#GOGOEND
|
|
0
|
|
#GOGOSTART
|
|
00
|
|
#GOGOEND
|
|
0
|
|
#GOGOSTART
|
|
00
|
|
#GOGOEND
|
|
0
|
|
#GOGOSTART
|
|
00
|
|
#GOGOEND
|
|
0
|
|
#GOGOSTART
|
|
00
|
|
#GOGOEND
|
|
0
|
|
#GOGOSTART
|
|
0,
|
|
#GOGOEND
|
|
6
|
|
#GOGOSTART
|
|
0000000,
|
|
#GOGOEND
|
|
8,
|
|
#END
|
|
|
|
COURSE:Normal
|
|
LEVEL:5
|
|
NOTESDESIGNER1:Colin
|
|
|
|
#START
|
|
#GOGOSTART
|
|
3,
|
|
3,
|
|
3,
|
|
3,
|
|
#GOGOEND
|
|
11,
|
|
10101110,
|
|
5008,
|
|
,
|
|
#MEASURE 8/4
|
|
4,
|
|
#MEASURE 4/4
|
|
#GOGOSTART
|
|
10001011,
|
|
1110,
|
|
10011010,
|
|
1,
|
|
20202022,
|
|
2220,
|
|
2002202
|
|
#GOGOEND
|
|
0,
|
|
#GOGOSTART
|
|
20
|
|
#GOGOEND
|
|
0
|
|
#GOGOSTART
|
|
00
|
|
#GOGOEND
|
|
0
|
|
#GOGOSTART
|
|
00
|
|
#GOGOEND
|
|
0
|
|
#GOGOSTART
|
|
00
|
|
#GOGOEND
|
|
0
|
|
#GOGOSTART
|
|
0000,
|
|
#GOGOEND
|
|
31,
|
|
1,
|
|
1011,
|
|
11,
|
|
2,
|
|
2220,
|
|
20002022,
|
|
2,
|
|
31,
|
|
10011010,
|
|
1001,
|
|
1110,
|
|
42,
|
|
20202022,
|
|
2,
|
|
11,
|
|
2,
|
|
2022,
|
|
2,
|
|
20022020,
|
|
2,
|
|
2220,
|
|
20222020,
|
|
2,
|
|
#GOGOSTART
|
|
30030100,
|
|
30030100,
|
|
31,
|
|
11101110,
|
|
1,
|
|
20222020,
|
|
20005858,
|
|
58585080,
|
|
30030100,
|
|
30030100,
|
|
3011,
|
|
11101110,
|
|
1,
|
|
2222,
|
|
5,
|
|
8,
|
|
30001011,
|
|
1110,
|
|
10011010,
|
|
10000000000
|
|
#GOGOEND
|
|
00000,
|
|
#GOGOSTART
|
|
20002022,
|
|
2220,
|
|
2002202
|
|
#GOGOEND
|
|
0,
|
|
#GOGOSTART
|
|
30
|
|
#GOGOEND
|
|
0
|
|
#GOGOSTART
|
|
00
|
|
#GOGOEND
|
|
0
|
|
#GOGOSTART
|
|
00
|
|
#GOGOEND
|
|
0
|
|
#GOGOSTART
|
|
00
|
|
#GOGOEND
|
|
0
|
|
#GOGOSTART
|
|
00
|
|
#GOGOEND
|
|
0
|
|
#GOGOSTART
|
|
0,
|
|
#GOGOEND
|
|
6
|
|
#GOGOSTART
|
|
0000000,
|
|
#GOGOEND
|
|
8,
|
|
#END
|
|
|
|
COURSE:Hard
|
|
LEVEL:7
|
|
BALLOON:15
|
|
NOTESDESIGNER2:Colin
|
|
|
|
#START
|
|
#GOGOSTART
|
|
3,
|
|
3,
|
|
3,
|
|
3000000010010010,
|
|
#GOGOEND
|
|
30022222,
|
|
1001001010201000,
|
|
5008,
|
|
3,
|
|
#MEASURE 8/4
|
|
4,
|
|
#MEASURE 4/4
|
|
#GOGOSTART
|
|
1010201110102000,
|
|
11202122,
|
|
1010201110102000,
|
|
11202122,
|
|
1010201110102000,
|
|
11202122,
|
|
10102011101020
|
|
#GOGOEND
|
|
00,
|
|
#GOGOSTART
|
|
30
|
|
#GOGOEND
|
|
0
|
|
#GOGOSTART
|
|
30
|
|
#GOGOEND
|
|
0
|
|
#GOGOSTART
|
|
30
|
|
#GOGOEND
|
|
0
|
|
#GOGOSTART
|
|
30
|
|
#GOGOEND
|
|
0
|
|
#GOGOSTART
|
|
3030,
|
|
#GOGOEND
|
|
30200120,
|
|
10200120,
|
|
10200122,
|
|
1000201110102000,
|
|
10200120,
|
|
10200120,
|
|
10200122,
|
|
3000000030030030,
|
|
30012222,
|
|
0020101020002022,
|
|
2000001020111010,
|
|
10102212,
|
|
30101210,
|
|
10101212,
|
|
1000101110101000,
|
|
5008,
|
|
4,
|
|
4,
|
|
4,
|
|
4000000030030030,
|
|
3000201110102000,
|
|
10221120,
|
|
7,
|
|
8,
|
|
#GOGOSTART
|
|
3002002000200020,
|
|
1001011000200000,
|
|
12121202,
|
|
1020102010110110,
|
|
10021122,
|
|
1022202010102020,
|
|
1000202058005800,
|
|
5800580030303000,
|
|
3002002000200020,
|
|
1001001000200020,
|
|
12121202,
|
|
1020102010110110,
|
|
10021122,
|
|
1022202010102000,
|
|
5008,
|
|
3000000030030030,
|
|
3010201110102000,
|
|
11202122,
|
|
1010201110102000,
|
|
10102000201
|
|
#GOGOEND
|
|
04000,
|
|
#GOGOSTART
|
|
3010201110102000,
|
|
11202122,
|
|
10102011101020
|
|
#GOGOEND
|
|
00,
|
|
#GOGOSTART
|
|
30
|
|
#GOGOEND
|
|
0
|
|
#GOGOSTART
|
|
30
|
|
#GOGOEND
|
|
0
|
|
#GOGOSTART
|
|
30
|
|
#GOGOEND
|
|
0
|
|
#GOGOSTART
|
|
30
|
|
#GOGOEND
|
|
0
|
|
#GOGOSTART
|
|
30
|
|
#GOGOEND
|
|
0
|
|
#GOGOSTART
|
|
3,
|
|
#GOGOEND
|
|
0
|
|
#GOGOSTART
|
|
6000000,
|
|
#GOGOEND
|
|
8,
|
|
#END
|
|
|
|
COURSE:Oni
|
|
LEVEL:8
|
|
NOTESDESIGNER3:Colin
|
|
|
|
#START
|
|
#GOGOSTART
|
|
3,
|
|
3,
|
|
3,
|
|
3000000030030030,
|
|
#GOGOEND
|
|
30012121,
|
|
2012022020102000,
|
|
5,
|
|
8,
|
|
#MEASURE 8/4
|
|
3000000000000000000000000000
|
|
#SCROLL 2
|
|
4
|
|
#SCROLL 1
|
|
000,
|
|
#MEASURE 4/4
|
|
#GOGOSTART
|
|
3020111202201112,
|
|
0220102101201212,
|
|
1020111202201112,
|
|
0220111201122111,
|
|
1020111202201112,
|
|
0220102101201212,
|
|
10201112022010
|
|
#GOGOEND
|
|
20,
|
|
#GOGOSTART
|
|
30
|
|
#GOGOEND
|
|
0
|
|
#GOGOSTART
|
|
30
|
|
#GOGOEND
|
|
0
|
|
#GOGOSTART
|
|
30
|
|
#GOGOEND
|
|
0
|
|
#GOGOSTART
|
|
30
|
|
#GOGOEND
|
|
0
|
|
#GOGOSTART
|
|
3030,
|
|
#GOGOEND
|
|
3010102020020010,
|
|
2011202010120210,
|
|
0020102010010020,
|
|
1020102010210120,
|
|
3020202120120210,
|
|
1020102010120220,
|
|
1020102010120110,
|
|
3000000030040040,
|
|
3000001020222020,
|
|
1011101020112020,
|
|
1000201120121210,
|
|
1011201020102022,
|
|
1000201110102010,
|
|
2011012020102020,
|
|
1010101210102010,
|
|
1111111111111111,
|
|
20020020,
|
|
2022,
|
|
20210020,
|
|
2000200010010020,
|
|
3000001020112020,
|
|
10021121,
|
|
2111211121112111,
|
|
2,
|
|
#GOGOSTART
|
|
3012022011200020,
|
|
1012021011200020,
|
|
1022102010200022,
|
|
1011202010110120,
|
|
3000002010112020,
|
|
1012011010212020,
|
|
3000002012101210,
|
|
1210121030404000,
|
|
3012022011200020,
|
|
1012021011200020,
|
|
1022102010200022,
|
|
1011202010110120,
|
|
3000002010112020,
|
|
1012011010212000,
|
|
6,
|
|
8,
|
|
3020111202201112,
|
|
0220102101201212,
|
|
1020111202201112,
|
|
02201112011
|
|
#GOGOEND
|
|
20000,
|
|
#GOGOSTART
|
|
#SCROLL 2
|
|
3
|
|
#SCROLL 1
|
|
020111202201112,
|
|
0220102101201212,
|
|
10201112022010
|
|
#GOGOEND
|
|
20,
|
|
#GOGOSTART
|
|
30
|
|
#GOGOEND
|
|
0
|
|
#GOGOSTART
|
|
30
|
|
#GOGOEND
|
|
0
|
|
#GOGOSTART
|
|
30
|
|
#GOGOEND
|
|
0
|
|
#GOGOSTART
|
|
30
|
|
#GOGOEND
|
|
0
|
|
#GOGOSTART
|
|
30
|
|
#GOGOEND
|
|
0
|
|
#GOGOSTART
|
|
3,
|
|
#GOGOEND
|
|
0
|
|
#GOGOSTART
|
|
6000000,
|
|
#GOGOEND
|
|
8,
|
|
#END
|
|
|
|
COURSE:Edit
|
|
LEVEL:10
|
|
NOTESDESIGNER4:Colin
|
|
|
|
#START
|
|
#GOGOSTART
|
|
3,
|
|
3,
|
|
3,
|
|
3000000030030030,
|
|
#GOGOEND
|
|
3022102010221020,
|
|
1022102010221020,
|
|
1022102010221020,
|
|
3,
|
|
#MEASURE 8/4
|
|
30202212012022120120221201221020,
|
|
#MEASURE 4/4
|
|
#GOGOSTART
|
|
3020221201202212,
|
|
0120221201212221,
|
|
1020221201202212,
|
|
0120221201112212,
|
|
1020221201202212,
|
|
0120221211202212,
|
|
10202212012022
|
|
#GOGOEND
|
|
12,
|
|
#GOGOSTART
|
|
12
|
|
#GOGOEND
|
|
2
|
|
#GOGOSTART
|
|
12
|
|
#GOGOEND
|
|
2
|
|
#GOGOSTART
|
|
12
|
|
#GOGOEND
|
|
2
|
|
#GOGOSTART
|
|
12
|
|
#GOGOEND
|
|
2
|
|
#GOGOSTART
|
|
1210,
|
|
#GOGOEND
|
|
3020112102102020,
|
|
1020102110210120,
|
|
1020112010221020,
|
|
1012102020110120,
|
|
3020112102102022,
|
|
1020102110210120,
|
|
1020112010221020,
|
|
3000000030030030,
|
|
3022201020212222,
|
|
1122121122221212,
|
|
100000000000200000101010200000200200000100200100,
|
|
2011212120111222,
|
|
1022112010121020,
|
|
1011012022112020,
|
|
1012101012121010,
|
|
1122112212121212,
|
|
1,
|
|
4,
|
|
4,
|
|
4000000040040040,
|
|
3011201020111020,
|
|
1011201020221020,
|
|
100200100200100200100200101010101010101010101010,
|
|
2,
|
|
#GOGOSTART
|
|
3012022011201020,
|
|
1022021011221020,
|
|
1012101210102011,
|
|
1020101210120210,
|
|
3000201210102022,
|
|
1101202210212020,
|
|
1011202212101210,
|
|
1210121010212020,
|
|
3012022011201020,
|
|
1022021011221020,
|
|
1012101210102011,
|
|
1020101210120210,
|
|
3000201210102022,
|
|
1101202210212020,
|
|
6,
|
|
8000201120210120,
|
|
3020221201202212,
|
|
0120221201212221,
|
|
1020221201202212,
|
|
#MEASURE 49/64
|
|
00001000200000002000200010002000000010001000
|
|
#GOGOEND
|
|
2000
|
|
#BPMCHANGE 10.6
|
|
#HBSCROLL
|
|
0,
|
|
#MEASURE 4/4
|
|
#GOGOSTART
|
|
#BPMCHANGE 170
|
|
#SCROLL 10
|
|
3000000
|
|
#SCROLL 1
|
|
020000000200020001000200000001000200000002000200010002000,
|
|
0120221211202212,
|
|
10202212012022
|
|
#GOGOEND
|
|
12,
|
|
#GOGOSTART
|
|
12
|
|
#GOGOEND
|
|
2
|
|
#GOGOSTART
|
|
12
|
|
#GOGOEND
|
|
2
|
|
#GOGOSTART
|
|
12
|
|
#GOGOEND
|
|
2
|
|
#GOGOSTART
|
|
12
|
|
#GOGOEND
|
|
2
|
|
#GOGOSTART
|
|
12
|
|
#GOGOEND
|
|
1
|
|
#GOGOSTART
|
|
2,
|
|
#GOGOEND
|
|
100100
|
|
#GOGOSTART
|
|
100100100100100100202020202020202020202020,
|
|
#GOGOEND
|
|
1,
|
|
#END
|