Files
Colins_Custom_Charts/03 VOCALOID/DEVIL KICKBACK/DEVIL KICKBACK.tja
T
2026-04-23 11:59:42 -04:00

646 lines
4.5 KiB
Plaintext

// PeepoDrumKit 2025/09/13
TITLE:DEVIL KICKBACK
TITLEJA:DEVIL KICKBACK
SUBTITLE:--Vane Lily feat. Frimomen
SUBTITLEJA:Vane Lily feat. フリモメン
BPM:175
WAVE:DEVIL KICKBACK.ogg
PREIMAGE:DEVIL KICKBACK.jpg
OFFSET:-0.158
DEMOSTART:21.758
GENRE:ボーカロイド
MAKER:Colin
SONGVOL:61
SEVOL:54
BGMOVIE:DEVIL KICKBACK.mp4
MOVIEOFFSET:0
COURSE:Easy
LEVEL:1
NOTESDESIGNER0:Colin
#START
11,
1,
11,
1,
11,
1,
11,
1,
#MEASURE 2/4
#BPMCHANGE 87.5
#SCROLL 2
2,
,
22,
2,
#MEASURE 4/4
#BPMCHANGE 175
#SCROLL 1
2,
2,
22,
2,
31,
1110,
11,
1,
22,
2220,
22,
2,
6008,
,
6008,
,
33,
3,
40004006,
08,
11,
1,
11,
1,
11,
1,
11,
1,
22,
2220,
22,
2,
11,
1110,
11,
1,
#MEASURE 2/4
#BPMCHANGE 87.5
#SCROLL 2
2,
,
22,
2,
2,
22,
2,
2,
#MEASURE 4/4
#BPMCHANGE 175
#SCROLL 1
31,
1,
11,
1,
11,
1,
1011,
11,
5,
08,
22,
2220,
5,
0085,
,
,
#BARLINEOFF
#BPMCHANGE 87.5
8
#BARLINEON
0,
#BPMCHANGE 175
2,
2,
22,
2,
2,
2,
22,
2,
31,
1,
11,
1,
1110,
11,
11,
3,
0608,
,
6008,
,
33,
3,
40004006,
08,
11,
1,
1011,
11,
11,
1,
1011,
1,
#END
COURSE:Normal
LEVEL:1
NOTESDESIGNER1:Colin
#START
1011,
11,
10001011,
11,
11,
1110,
10001011,
1,
#MEASURE 2/4
#BPMCHANGE 87.5
#SCROLL 2
2,
0022,
22,
2,
#MEASURE 4/4
#BPMCHANGE 175
#SCROLL 1
22,
2220,
20002022,
2,
30001011,
1110,
1110,
11,
20002022,
2220,
2022,
2,
6008,
0222,
6008,
0011,
30003033,
,
40040406,
08,
11,
1110,
10001011,
1110,
11,
1110,
11,
1,
20002022,
2220,
20202022,
22,
1110,
10111000,
1110,
11,
#MEASURE 2/4
#BPMCHANGE 87.5
#SCROLL 2
2,
0022,
22,
22,
2,
2022,
2,
22,
#MEASURE 4/4
#BPMCHANGE 175
#SCROLL 1
31,
1110,
11,
1110,
10101011,
1,
10001011,
1011,
5,
08,
20202022,
2220,
5,
0085,
,
,
#BARLINEOFF
#BPMCHANGE 87.5
8
#BARLINEON
0,
#BPMCHANGE 175
2,
22,
2022,
22,
2,
22,
2022,
2,
30001011,
1110,
11,
1110,
1110,
10111000,
1111,
3,
0608,
0222,
6008,
,
30003033,
00222020,
40040406,
08,
10101011,
1110,
10011010,
11,
10001011,
1110,
10001011,
,
#END
COURSE:Hard
LEVEL:1
NOTESDESIGNER2:Colin
#START
3012,
22221010,
12,
12121020,
10201120,
1212,
11221122,
12121000,
#MEASURE 2/4
#BPMCHANGE 87.5
#SCROLL 2
20202022,
000200000020200020200020,
20205008,
02000000,
#MEASURE 4/4
#BPMCHANGE 175
#SCROLL 1
3000201110102000,
10201122,
1022201010201020,
1110,
30212021,
01212012,
0010201020222010,
0010201110102020,
10221021,
01221022,
11202121,
0010201020111010,
30403034,
0010201020222020,
30430406,
0000008000222020,
30403043,
0010202220202020,
10210205,
08,
1001102010201000,
10212020,
1001102010201000,
1022201020002000,
1001102010201000,
10212120,
1001102010201020,
11212020,
1000201111102000,
1000200110102000,
1000201111102000,
1000200110102000,
1002201000102000,
1000201020011010,
1000201110102000,
1011111020022020,
#MEASURE 2/4
#BPMCHANGE 87.5
#SCROLL 2
20202022,
000200000202000020200020,
20205008,
02002000,
200200200020,
020000200200,
200000200202,
,
#MEASURE 4/4
#BPMCHANGE 175
#SCROLL 1
10210120,
1010201000022020,
10210120,
1010201000022020,
10210120,
1010201000022020,
1000201110102000,
10210212,
6,
,
8000201110002010,
01210222,
1600,
0086,
,
0008,
#BARLINEOFF
#BPMCHANGE 87.5
0
#BARLINEON
0,
#BPMCHANGE 175
2,
,
22,
2,
2,
2,
22,
2,
10210120,
11210120,
10210121,
0010200020222020,
10210120,
11210120,
10210121,
,
00403034,
0010201020222020,
30430406,
0000008000222020,
30403043,
0010202220202020,
10210205,
08,
30403034,
0010201020222020,
30430406,
0000008000222020,
30403043,
0010202220202020,
10210205,
08,
#END
COURSE:Oni
LEVEL:1
NOTESDESIGNER3:Colin
#START
3002102010112010,
1002102010221020,
1002102010112010,
1012102010221020,
1002202110102010,
1002102010212020,
1011201210112020,
1011202011112000,
#MEASURE 2/4
#BPMCHANGE 87.5
#SCROLL 2
100100200102,
002001202201,
200100100202,
000020000100200010200020,
#MEASURE 4/4
#BPMCHANGE 175
#SCROLL 1
1010201212102020,
1011201110102020,
1010201212102030,
2000200020002222,
1000201110102030,
0010201211102020,
1011201110102030,
0010201212102030,
0010202210102011,
11212022,
0010201120102020,
0010201010112020,
3022102030221040,
0010201210112020,
3022102030221040,
0010201220112022,
1,
,
,
,
,
,
,
,
,
,
,
,
,
,
,
,
,
,
,
,
#MEASURE 2/4
#BPMCHANGE 87.5
#SCROLL 2
0,
,
,
,
,
,
,
,
#MEASURE 4/4
#BPMCHANGE 175
#SCROLL 1
0,
,
,
,
,
,
,
,
,
,
,
,
,
,
,
,
#BARLINEOFF
#BPMCHANGE 87.5
0
#BARLINEON
0,
#BPMCHANGE 175
0,
,
,
,
,
,
,
,
,
,
,
,
,
,
,
,
,
,
,
,
,
,
,
,
,
,
,
,
,
,
,
,
#END
COURSE:Edit
LEVEL:1
NOTESDESIGNER4:Colin
#START
,
,
,
,
,
,
,
,
20202022,
000200000200200020200020,
2222,
,
,
,
,
,
,
,
,
,
,
,
,
,
,
,
,
,
,
,
,
,
,
,
,
,
,
,
,
,
,
,
,
,
,
,
,
,
,
,
,
,
,
,
,
,
,
,
,
,
,
,
,
,
,
,
,
,
,
,
,
,
,
,
,
,
,
,
,
,
,
,
,
,
,
,
,
,
,
,
,
,
,
,
,
,
,
,
,
,
,
,
,
,
,
,
#END