generated from DragonRatTiger/Custom-Charts
255 lines
2.3 KiB
Plaintext
255 lines
2.3 KiB
Plaintext
TITLE:FEEDBACK
|
|
SUBTITLE:--isidore. & MonochroMenace feat. Luka Megurine
|
|
TITLEJA:FEEDBACK
|
|
SUBTITLEJA:isidore. & MonochroMenace feat. 巡音ルカ
|
|
PREIMAGE:FEEDBACK.jpg
|
|
BGMOVIE:FEEDBACK.mp4
|
|
WAVE:FEEDBACK.ogg
|
|
BPM:165
|
|
OFFSET:-0.799
|
|
DEMOSTART:41.162
|
|
GENRE:ボーカロイド
|
|
MAKER:Colin
|
|
|
|
COURSE:Easy
|
|
LEVEL:2
|
|
NOTESDESIGNER0:Colin
|
|
|
|
#START
|
|
0202,
|
|
0202,
|
|
0202,
|
|
,
|
|
11,
|
|
1110,
|
|
11,
|
|
1,
|
|
22,
|
|
2220,
|
|
22,
|
|
2220,
|
|
11,
|
|
1110,
|
|
11,
|
|
1,
|
|
22,
|
|
2220,
|
|
22,
|
|
2,
|
|
2,
|
|
,
|
|
2,
|
|
,
|
|
22,
|
|
2,
|
|
22,
|
|
2,
|
|
#GOGOSTART
|
|
33,
|
|
3,
|
|
11,
|
|
1110,
|
|
33,
|
|
3,
|
|
11,
|
|
004
|
|
#GOGOEND
|
|
4,
|
|
#GOGOSTART
|
|
02,
|
|
2220,
|
|
22,
|
|
2,
|
|
22,
|
|
2220,
|
|
22,
|
|
2033,
|
|
#GOGOEND
|
|
3,
|
|
,
|
|
,
|
|
03,
|
|
#END
|
|
|
|
COURSE:Normal
|
|
LEVEL:3
|
|
NOTESDESIGNER1:Colin
|
|
|
|
#START
|
|
0202,
|
|
0202,
|
|
0202,
|
|
,
|
|
10001011,
|
|
1110,
|
|
11,
|
|
1,
|
|
20002022,
|
|
2220,
|
|
22,
|
|
2220,
|
|
10110010,
|
|
1110,
|
|
10110010,
|
|
1,
|
|
20220020,
|
|
2220,
|
|
22,
|
|
2220,
|
|
2,
|
|
,
|
|
2,
|
|
,
|
|
22,
|
|
2,
|
|
22,
|
|
2,
|
|
#GOGOSTART
|
|
30003003,
|
|
00001011,
|
|
11,
|
|
10111000,
|
|
30003003,
|
|
00001011,
|
|
11,
|
|
104
|
|
#GOGOEND
|
|
4,
|
|
#GOGOSTART
|
|
00220020,
|
|
2220,
|
|
20220220,
|
|
2220,
|
|
20220220,
|
|
2220,
|
|
22,
|
|
2033,
|
|
#GOGOEND
|
|
3,
|
|
,
|
|
,
|
|
03,
|
|
#END
|
|
|
|
COURSE:Hard
|
|
LEVEL:4
|
|
NOTESDESIGNER2:Colin
|
|
|
|
#START
|
|
30200122,
|
|
10200120,
|
|
10201122,
|
|
1000100010102011,
|
|
10200120,
|
|
10200120,
|
|
10200120,
|
|
10200121,
|
|
10200120,
|
|
10200120,
|
|
10200120,
|
|
12220443,
|
|
3000201000102011,
|
|
11201020,
|
|
01220120,
|
|
10201121,
|
|
10210120,
|
|
10201122,
|
|
10201121,
|
|
01221000,
|
|
12020201,
|
|
01212211,
|
|
20020202,
|
|
01112000,
|
|
12020201,
|
|
01221111,
|
|
22020201,
|
|
01212040,
|
|
#GOGOSTART
|
|
30200123,
|
|
01212020,
|
|
30201120,
|
|
01220120,
|
|
30210123,
|
|
01212121,
|
|
40221120,
|
|
121230
|
|
#GOGOEND
|
|
30,
|
|
#GOGOSTART
|
|
3000201000102011,
|
|
11202000,
|
|
1000201000102011,
|
|
11201000,
|
|
1000201000102011,
|
|
11202000,
|
|
00212020,
|
|
11223040,
|
|
#GOGOEND
|
|
30200022,
|
|
00200022,
|
|
00200022,
|
|
0230,
|
|
#END
|
|
|
|
COURSE:Oni
|
|
LEVEL:5
|
|
NOTESDESIGNER3:Colin
|
|
|
|
#START
|
|
3000200000102022,
|
|
10200122,
|
|
10221222,
|
|
1000100010102011,
|
|
10212022,
|
|
11212012,
|
|
12212012,
|
|
1010201010202011,
|
|
1000201020112020,
|
|
11212022,
|
|
11212022,
|
|
11221443,
|
|
3000201000102011,
|
|
11201121,
|
|
0010202000102011,
|
|
1010201020112010,
|
|
1000201000102022,
|
|
11201122,
|
|
1000201120102010,
|
|
01221120,
|
|
12020201,
|
|
01212211,
|
|
20020202,
|
|
0010101020002211,
|
|
2011102011102021,
|
|
2011102011102010,
|
|
21121121,
|
|
1010202202104000,
|
|
#GOGOSTART
|
|
3000201110102030,
|
|
0010201120102020,
|
|
30201121,
|
|
0010202012102020,
|
|
3000201110102030,
|
|
0010201120102010,
|
|
4000202210102000,
|
|
121230
|
|
#GOGOEND
|
|
30,
|
|
#GOGOSTART
|
|
#SCROLL 1.5
|
|
3
|
|
#SCROLL 1
|
|
000201000102011,
|
|
11202122,
|
|
1000201000102011,
|
|
1010200010102022,
|
|
1000201000102011,
|
|
11202122,
|
|
1000201020002011,
|
|
11223040,
|
|
#GOGOEND
|
|
3011201000102020,
|
|
11201021,
|
|
22020122,
|
|
22103000,
|
|
#END |