Files
Colins_Custom_Charts/03 VOCALOID/Fixer/Fixer.tja
T
2025-12-20 15:52:49 -05:00

354 lines
4.5 KiB
Plaintext

TITLE:Fixer
SUBTITLE:--nulut feat. flower
TITLEJA:フィクサー
SUBTITLEJA:ぬゆり feat. flower
PREIMAGE:Fixer.png
BGIMAGE:FixerBG.png
BGMOVIE:Fixer.mp4
WAVE:Fixer.ogg
BPM:135
OFFSET:-0.034
DEMOSTART:71.145
MAKER:Colin
COURSE:Easy
LEVEL:2
SCOREINIT:
SCOREDIFF:
NOTESDESIGNER0:Colin
#START
2,
2,
2,
2,
2,
2,
2,
2,
#GOGOSTART
3010,
1110,
1010,
1110,
1010,
1110,
1010,
1110,
#GOGOEND
2,
,
2220,
2020,
2,
2220,
2,
2020,
2020,
2,
1010,
1011,
1020,
1,
2020,
2,
1010,
1,
2020,
2,
1010,
1,
2020,
5008,
#GOGOSTART
3030,
3,
4040,
4,
1110,
2220,
10050000,
0800,
#GOGOEND
4
#GOGOSTART
410,
1110,
2220,
1011,
1202,
00201001,
0022,
2010,
#GOGOEND
20002005,
0080,
#GOGOSTART
1110,
1011,
1210,
1212,
2220,
2220,
2220,
2220,
#GOGOEND
4,
#END
COURSE:Normal
LEVEL:2
SCOREINIT:
SCOREDIFF:
NOTESDESIGNER1:Colin
#START
2,
2,
2,
2,
2,
2,
2,
2,
#GOGOSTART
3011,
1110,
10111000,
10101011,
1010,
10101011,
1011,
1110,
#GOGOEND
2,
,
2220,
20222000,
2020,
20202022,
2020,
2022,
20002022,
2220,
1011,
1111,
10112010,
10002022,
2220,
2220,
10101011,
1110,
20202022,
2220,
1110,
10101110,
2222,
5008,
#GOGOSTART
3130,
3110,
4042,
4010,
1110,
2220,
10050000,
0800,
#GOGOEND
4
#GOGOSTART
410,
10101011,
2220,
10111010,
1202,
00201021,
0222,
20001011,
#GOGOEND
20002005,
0081,
#GOGOSTART
1110,
10111010,
1210,
10201022,
2220,
2220,
20202022,
2220,
#GOGOEND
4,
#END
COURSE:Hard
LEVEL:4
SCOREINIT:
SCOREDIFF:
NOTESDESIGNER2:Colin
#START
2000200200000000,
2000200200000000,
2000200200000000,
2000200200000000,
2000200200000000,
2000200200000000,
2000200200000000,
11111111,
#GOGOSTART
3000102010010020,
1020020200202020,
4000102010010020,
1020020200202020,
4000102010010020,
1020020200202020,
4000102010010020,
1020020200202020,
#GOGOEND
4,
,
100100200000100002001100,
100200100200100002002200,
100202200200100001000200,
100200200100200002000202,
200100200100200002002200,
100200100200100102000200,
100202200200100001000200,
100200200100200002000202,
22140214,
01230214,
300202200200200202001100,
100200100200100102002200,
12121212,
12021112,
300100100100100101002001,
000200200200200001000100,
00120221,
01250080,
400200200200200202000500,
000800100200100202000200,
12121212,
5080,
#GOGOSTART
400000300000400004006000,
08022222,
400000300000400004006000,
08022222,
300000300000400003006000,
08010122,
21010225,
00810222,
#GOGOEND
300300
#GOGOSTART
400000400004006000,
08022222,
400000300000400004006000,
08022222,
400000400000400400406000,
08030306,
00812225,
00810101,
#GOGOEND
20202225,
0080,
#GOGOSTART
3000102010010020,
1020020200202020,
4000102010010020,
1020020200202020,
4000102010010020,
1020020200202020,
4000102010010020,
1020020200202020,
#GOGOEND
4,
#END
COURSE:Oni
LEVEL:9
SCOREINIT:
SCOREDIFF:
NOTESDESIGNER3:Colin
#START
100000200000100000200200000200000200100010200020,
100000200000100000100020000020000200200000200000,
100200100201002002100200,
100202100201002002002202,
100000200000100000200200000200000200100010200020,
100000200000100000100020000020000200200000200000,
100200100201002002100200,
100202100201002002002202,
#GOGOSTART
1
#SCROLL 1.3
00202100200101201101200,
100200102002101200101200,
100202100202200202100200,
100202102002101201101200,
300202100200101201101200,
100200102002101200101200,
100202100202200202100200,
100202102002101201101200,
#GOGOEND
300100202102100101002001,
102202202101100202002102,
200101200202101102002102,
100202100200102102001202,
100202202200101201002100,
101202202100100102101202,
200101200202101102002102,
100202100200102102001202,
100202100102202102102202,
202201200202200202101202,
200202100202102202100200,
100202100102101101200200,
100202202201200202002102,
202201200202200202101202,
200202100202102202100200,
100202100102101101100202,
100102100102101201002002,
101101101102200202100100,
100202101201102202100201,
200201202202102202102202,
100200200101202202101200,
100202101201102202101202,
002202001102002202001202,
202202100222100400400400,
#GOGOSTART
300202100202102202100200,
100202100201100202101200,
302202100202102202100222,
100202100202101101202200,
300202100201102202100101,
100202100100100202101200,
202101200102102201202202,
101201201201101100200200,
#GOGOEND
300300
#GOGOSTART
400202101200100202,
100202101200102202101200,
200202101202102202100222,
100202101202101202100100,
400202100202100200201102,
100202100101102202100200,
101201100200101200100202,
100202101201101200100202,
#GOGOEND
10012225,
00083330,
#GOGOSTART
100202100200101201101200,
100200102002101200101200,
100202100202200202100200,
100202102002101201101200,
300202100200101201101200,
100200102002101200101200,
100202100202200202100200,
100202102002101201101200,
#GOGOEND
3,
#END