Files
Colins_Custom_Charts/03 VOCALOID/IDSMILE/IDSMILE.tja
T
2025-12-20 15:52:49 -05:00

504 lines
4.4 KiB
Plaintext
Raw Blame History

This file contains ambiguous Unicode characters
This file contains Unicode characters that might be confused with other characters. If you think that this is intentional, you can safely ignore this warning. Use the Escape button to reveal them.
TITLE:IDSMILE
SUBTITLE:--Toa feat. Nightcord at 25:00 / Project SEKAI COLORFUL STAGE!
TITLEJA:アイディスマイル
SUBTITLEJA:とあ feat. 25時、ナイトコードで。「プロジェクトセカイ カラフルステージ!」より
PREIMAGE:IDSMILE.png
BPM:171
WAVE:IDSMILE.ogg
BGMOVIE:IDSMILE.mp4
OFFSET:-0.027
DEMOSTART:38.053
MAKER:Colin
COURSE:Oni
LEVEL:8
SCOREINIT:
SCOREDIFF:
BALLOON:15,12
NOTESDESIGNER3:Colin
#START
1011201000100010,
00010010,
1011201000100010,
00010222,
1011201120100010,
0010001020102022,
1011201120200010,
22021121,
2011202220101020,
02012011,
1011202220200010,
#MEASURE 6/4
011000000222,
#MEASURE 4/4
1011201120102010,
000100200100200100222200,
1110201120102210,
2010201120222020,
1011201120102210,
200000100000200000100100200000100000202020200000,
1010201120102011,
2010201120102022,
#MEASURE 3/4
201020102011,
201020102011,
201020102011,
101020102011,
212212,
212121,
212020,
011001,
#MEASURE 4/4
10000122,
#GOGOSTART
400000100000200000202020200000100000200000200200,
1010201110102010,
2011201020112020,
2011202010222020,
1011201020112020,
1011202010112020,
1022202020101120,
100000100000200000202020100000100000200000200200,
100100200222100100200200,
1010221010102022,
1010202210102010,
1010201110202220,
1011201020102022,
2011202010112000,
2010201120102022,
100222200100200100200100,
#MEASURE 3/4
#GOGOEND
102121,
212121,
102121,
212121,
102121,
212121,
212121,
212121,
102121,
201020102011,
102121,
212121,
102121,
212121,
102121,
212121,
112112,
112112,
112112,
112112,
112112,
112112,
112112,
212222,
102700,
008011,
201202,
700082,
101202,
101202,
101201,
#MEASURE 4/4
21212121,
20000222,
20210201,
20112001,
20012002,
2001,
11222022,
20000112,
#GOGOSTART
4010201110102022,
1010201110102010,
2011201020112020,
2011202010222020,
1011201020112020,
1011202010112020,
100000200200200000200000200000100000202020200000,
100000100000200000202020100000100000200000200200,
1010202210102020,
1010221010102022,
1010202210102010,
1010201110202220,
1011201020102022,
200000100100200000200000100000100100202020200000,
2010201120102022,
100222200100200100200100,
100222200100200100400100,
#GOGOEND
20120210,
12000000,
#END
COURSE:Hard
LEVEL:4
SCOREINIT:
SCOREDIFF:
NOTESDESIGNER2:Colin
#START
11100101,
00010010,
11100101,
00010000,
20000002,
02020111,
10000202,
22022222,
20000101,
01010001,
20220202,
#MEASURE 6/4
021000000222,
#MEASURE 4/4
10001111,
01110222,
20000202,
02022222,
20000101,
01010001,
20120201,
1111,
#MEASURE 3/4
100100,
100011,
100101,
100002,
202202,
202,
221,
011001,
#MEASURE 4/4
1,
#GOGOSTART
10210201,
20012002,
10021002,
1002,
11112011,
2121,
10012002,
02020121,
20210201,
00201001,
20120102,
01212000,
20102022,
02022020,
5,
8,
#MEASURE 3/4
#GOGOEND
111,
111,
111,
111,
111,
111,
111,
111,
100101,
101011,
100102,
222,
5,
802,
202202,
5,
822,
222,
222,
202022,
222,
202022,
222,
222,
250,
,
8,
5,
8,
200200,
200002000000,
#MEASURE 4/4
2222,
2,
1,
1,
1010,
1,
11112022,
2,
#GOGOSTART
10210201,
20012002,
10021002,
1002,
11112011,
2121,
10012002,
02020121,
20210201,
00201001,
20120102,
01212000,
20102022,
02022020,
5,
8,
00000002,
#GOGOEND
20220220,
22000000,
#END
COURSE:Normal
LEVEL:3
BALLOON:10,6
SCOREINIT:
SCOREDIFF:
NOTESDESIGNER1:Colin
#START
1,
1,
1,
,
1,
1,
1,
,
1,
2,
1,
#MEASURE 6/4
010000,
#MEASURE 4/4
1011,
1010,
1011,
1010,
1011,
1010,
2022,
2022,
#MEASURE 3/4
2,
2,
2,
2,
200200,
2,
222,
020,
#MEASURE 4/4
2,
#GOGOSTART
1110,
1110,
2022,
2011,
11111011,
1222,
20002002,
2020,
10111000,
1010,
2120,
2120,
1110,
1110,
2020,
2222,
#MEASURE 3/4
#GOGOEND
2,
202,
2,
202,
2,
202,
2,
202,
200200,
202,
200200,
2,
5,
8,
101100,
111,
100100,
1,
111,
011,
100100,
1,
100100,
1,
070,
,
800100,
7,
800200,
200200,
200200,
#MEASURE 4/4
2222,
2,
1,
1,
1,
1,
1111,
1,
#GOGOSTART
1010,
1110,
2020,
2220,
11111011,
1111,
2022,
2222,
1011,
1010,
2022,
2020,
1120,
1120,
5,
,
8,
#GOGOEND
20020020,
02000000,
#END
COURSE:Easy
LEVEL:1
BALLOON:10,6
SCOREINIT:
SCOREDIFF:
NOTESDESIGNER0:Colin
#START
1,
,
1,
,
1,
,
1,
,
1,
,
1,
#MEASURE 6/4
010000,
#MEASURE 4/4
1010,
1,
1010,
1,
1010,
1,
2020,
2,
#MEASURE 3/4
2,
2,
2,
,
200200,
2,
002,
020,
#MEASURE 4/4
2,
#GOGOSTART
1010,
1,
2020,
2,
1010,
1,
2020,
2,
1010,
1,
2020,
2,
1010,
1,
2020,
2,
#MEASURE 3/4
#GOGOEND
2,
,
2,
,
2,
,
2,
,
200200,
2,
200200,
2,
5,
8,
100100,
1,
1,
,
1,
,
1,
,
1,
,
070,
,
8,
7,
8,
2,
2,
#MEASURE 4/4
2020,
2,
1,
,
1,
1,
1010,
1,
#GOGOSTART
1010,
1,
2020,
2,
1010,
1,
2020,
2,
1010,
1,
2020,
2,
1020,
1,
5,
,
8,
#GOGOEND
20020020,
02000000,
#END