generated from DragonRatTiger/Custom-Charts
348 lines
4.5 KiB
Plaintext
348 lines
4.5 KiB
Plaintext
TITLE:Moonlight
|
|
SUBTITLE:--Tatsuya Kitani & Harumaki Gohan feat. Vivid BAD SQUAD / Project SEKAI COLORFUL STAGE!
|
|
TITLEJA:月光
|
|
SUBTITLEJA:キタニタツヤ / はるまきごはん feat. Vivid BAD SQUAD 「プロジェクトセカイ カラフルステージ!」より
|
|
PREIMAGE:Moonlight.png
|
|
BGMOVIE:Moonlight.mp4
|
|
WAVE:Moonlight.ogg
|
|
BPM:109
|
|
OFFSET:-2.333
|
|
DEMOSTART:45.7275
|
|
MAKER:Colin
|
|
|
|
COURSE:Easy
|
|
LEVEL:1
|
|
SCOREINIT:
|
|
SCOREDIFF:
|
|
NOTESDESIGNER0:Colin
|
|
|
|
#START
|
|
#SCROLL 1.5
|
|
1010,
|
|
1010,
|
|
1010,
|
|
1,
|
|
2020,
|
|
2020,
|
|
2020,
|
|
2,
|
|
1110,
|
|
2220,
|
|
1,
|
|
2,
|
|
2220,
|
|
2220,
|
|
1010,
|
|
1110,
|
|
2020,
|
|
2010,
|
|
1010,
|
|
1110,
|
|
#GOGOSTART
|
|
1110,
|
|
2220,
|
|
1010,
|
|
1011,
|
|
2020,
|
|
2220,
|
|
1011,
|
|
1020,
|
|
2220,
|
|
1010,
|
|
1010105
|
|
#GOGOEND
|
|
0,
|
|
0080,
|
|
2020,
|
|
2022,
|
|
5,
|
|
0801,
|
|
1022,
|
|
2010,
|
|
2220,
|
|
5,
|
|
8,
|
|
5008,
|
|
,
|
|
2020,
|
|
2,
|
|
2020,
|
|
2,
|
|
1010,
|
|
1,
|
|
2020,
|
|
2,
|
|
1010,
|
|
1,
|
|
2020,
|
|
2,
|
|
#GOGOSTART
|
|
1110,
|
|
2220,
|
|
1010,
|
|
1011,
|
|
2020,
|
|
2220,
|
|
1011,
|
|
1020,
|
|
2220,
|
|
1010,
|
|
1010100
|
|
#GOGOEND
|
|
6,
|
|
000000000000000008000000,
|
|
#END
|
|
|
|
COURSE:Normal
|
|
LEVEL:1
|
|
SCOREINIT:
|
|
SCOREDIFF:
|
|
NOTESDESIGNER1:Colin
|
|
|
|
#START
|
|
#SCROLL 1.5
|
|
1011,
|
|
1010,
|
|
1011,
|
|
1,
|
|
2020,
|
|
2220,
|
|
2020,
|
|
2220,
|
|
10101110,
|
|
20202220,
|
|
1,
|
|
2,
|
|
20202220,
|
|
20202220,
|
|
10001011,
|
|
1110,
|
|
20002220,
|
|
2010,
|
|
10001110,
|
|
1110,
|
|
#GOGOSTART
|
|
10101110,
|
|
2220,
|
|
10001022,
|
|
1011,
|
|
20002022,
|
|
2220,
|
|
10001011,
|
|
10002022,
|
|
2220,
|
|
10001011,
|
|
1010105
|
|
#GOGOEND
|
|
0,
|
|
0080,
|
|
2020,
|
|
2022,
|
|
5,
|
|
0801,
|
|
10002220,
|
|
20001022,
|
|
2220,
|
|
5,
|
|
8,
|
|
5008,
|
|
,
|
|
2020,
|
|
20002222,
|
|
2020,
|
|
2,
|
|
1010,
|
|
1,
|
|
2020,
|
|
2,
|
|
1010,
|
|
1,
|
|
2020,
|
|
2,
|
|
#GOGOSTART
|
|
11101011,
|
|
2220,
|
|
10111010,
|
|
1211,
|
|
20002022,
|
|
2220,
|
|
10011010,
|
|
10002022,
|
|
2220,
|
|
1010,
|
|
1010100
|
|
#GOGOEND
|
|
6,
|
|
000000000000000008000000,
|
|
#END
|
|
|
|
COURSE:Hard
|
|
LEVEL:3
|
|
SCOREINIT:
|
|
SCOREDIFF:
|
|
NOTESDESIGNER2:Colin
|
|
|
|
#START
|
|
#SCROLL 1.5
|
|
100000200001000100200000,
|
|
100000200001000100200000,
|
|
100000200001000100200000,
|
|
100000200001000100200000,
|
|
200000200001000100200000,
|
|
200000200001000100200000,
|
|
100000200001000100100100,
|
|
1,
|
|
200000200000200200202000,
|
|
100000100001000000100100,
|
|
200000000001000100200000,
|
|
10201120,
|
|
10221020,
|
|
100100200001100100200000,
|
|
100100200001000100200001,
|
|
100001200201001100200100,
|
|
10201120,
|
|
10201120,
|
|
2020,
|
|
1110,
|
|
#GOGOSTART
|
|
200200200102002000000000,
|
|
100002200201000100200200,
|
|
100100100002000200200200,
|
|
100100200202000000100000,
|
|
100000200002002000100000,
|
|
100000200002000200200000,
|
|
1211,
|
|
100100100005000000800000,
|
|
200000200002000000100000,
|
|
200000100000100000100002,
|
|
2010202
|
|
#GOGOEND
|
|
0,
|
|
100000200001000100200000,
|
|
100000200001000100200000,
|
|
100000200001000100200000,
|
|
100000200001000100200000,
|
|
100000200001000100200000,
|
|
200002200002000100200000,
|
|
200002200002000100200000,
|
|
22222222,
|
|
5,
|
|
8,
|
|
1220,
|
|
2010,
|
|
2020,
|
|
2020,
|
|
1,
|
|
1,
|
|
200000000002000000000000,
|
|
200000000000000020200200,
|
|
2020,
|
|
0010,
|
|
2020,
|
|
1020,
|
|
1020,
|
|
2,
|
|
#GOGOSTART
|
|
200200200102002000000000,
|
|
100002200201000100200200,
|
|
100100100002000200200200,
|
|
100100200202000000100000,
|
|
100000200002002000100000,
|
|
100000200002000200200000,
|
|
1211,
|
|
100100100005000000800000,
|
|
200000200002000000100000,
|
|
200000100000100000100002,
|
|
2010202
|
|
#GOGOEND
|
|
6,
|
|
000000000000000008000000,
|
|
#END
|
|
|
|
COURSE:Oni
|
|
LEVEL:8
|
|
BALLOON:4,2
|
|
SCOREINIT:
|
|
SCOREDIFF:
|
|
NOTESDESIGNER3:Colin
|
|
|
|
#START
|
|
#SCROLL 1.5
|
|
100201101202002102102200,
|
|
100102202101001102102200,
|
|
100202102201002100200200,
|
|
100201201001201201211102,
|
|
100202202101001201102101,
|
|
100202202202002202101102,
|
|
100202102102000101201200,
|
|
100101202001201101202202,
|
|
202201202102200101202002,
|
|
001201202201002101201101,
|
|
200202101201001102201202,
|
|
100111200111200111201102,
|
|
102101202101201201201001,
|
|
101211201002101102200202,
|
|
101201101201200202201202,
|
|
100101102201002101201100,
|
|
100001200201101200200201,
|
|
200202202001100101201010,
|
|
200202002201100102002001,
|
|
100202002001102102202204,
|
|
#GOGOSTART
|
|
003002202102003002101203,
|
|
001202201004002102200201,
|
|
200100101202002100201200,
|
|
200201202204001102102104,
|
|
003002102104003002101203,
|
|
001202201004002102202204,
|
|
000300101200102100201200,
|
|
200201202204001102101204,
|
|
003001102204003001102103,
|
|
000402201201001202200103,
|
|
002201002202101100400
|
|
#GOGOEND
|
|
600,
|
|
000000000802001001201202,
|
|
001101202102001101202002,
|
|
001201200200200200200200,
|
|
50802215,
|
|
000000800202002102202101,
|
|
002101202101002202101101,
|
|
002050000008001100200100,
|
|
22212122,
|
|
5,
|
|
80201225,
|
|
0008,
|
|
7000802078202000,
|
|
30011122,
|
|
10202215,
|
|
,
|
|
800000000000000002102101,
|
|
002002102102002002010010,
|
|
050000000000800020100200,
|
|
200200100202000200200200,
|
|
100200200201000002202101,
|
|
200020000010100020200100200000200010000000100020,
|
|
000202002001000200102010,
|
|
100200002201200201000100,
|
|
200201001100100000000000,
|
|
#GOGOSTART
|
|
#SCROLL 2
|
|
4
|
|
#SCROLL 1.5
|
|
01002202102003002101203,
|
|
001202201004002102200201,
|
|
200100101202002100201200,
|
|
200201202204001102102104,
|
|
003002102104003002101203,
|
|
001202201004002102202204,
|
|
000300101200102100201200,
|
|
200201202204001102101204,
|
|
003001102204003001102103,
|
|
000402201201001202200103,
|
|
002201002202101200300
|
|
#GOGOEND
|
|
600,
|
|
000000000000000008000000,
|
|
#END
|