Files
Colins_Custom_Charts/03 VOCALOID/Neppu/Neppu.tja
T
2025-12-20 15:52:49 -05:00

511 lines
4.3 KiB
Plaintext

TITLE:Neppu
SUBTITLE:--Shota Horie (kemu) feat. PJSK Group Leaders / Project SEKAI COLORFUL STAGE!
TITLEJA:熱風
SUBTITLEJA:堀江晶太(kemu) feat. プロセカのリーダース「プロジェクトセカイ カラフルステージ!」より
PREIMAGE:Neppu.png
BGMOVIE:Neppu.mp4
WAVE:Neppu.ogg
BPM:192
OFFSET:-1.080
DEMOSTART:40.142
GENRE:ボーカロイド
MAKER:Colin & bol
COURSE:Easy
LEVEL:2
SCOREINIT:
SCOREDIFF:
NOTESDESIGNER0:Colin
#START
2,
2,
2020,
2,
2,
2,
2,
2,
2,
2,
2020,
2,
2,
2,
2,
,
3,
0300,
3,
0300,
3,
0300,
3,
,
3010,
1,
1011,
1,
2,
,
,
,
#GOGOSTART
3110,
1011,
1010,
1,
2,
2022,
2020,
2,
5,
8,
5,
8,
1010,
1,
1,
1,
6,
8,
5,
8,
1011,
1010,
1010,
1110,
2,
2020,
2,
2022,
2,
2020,
2,
,
3,
1011,
1010,
1,
1010,
1010,
5,
,
8,
0020,
2022,
2020,
#GOGOEND
2,
#GOGOSTART
6,
,
,
,
,
,
00
#GOGOEND
80,
#END
COURSE:Normal
LEVEL:3
SCOREINIT:
SCOREDIFF:
NOTESDESIGNER1:Colin
#START
2,
2,
2022,
2,
2,
2,
2022,
2,
2022,
2,
2022,
2,
2,
2022,
2020,
2,
3,
0300,
3,
0300,
3,
0300,
3,
,
3110,
1011,
10001011,
1010,
2,
,
2,
,
#GOGOSTART
30101011,
1111,
1011,
1,
20002022,
2222,
2020,
2,
5,
8011,
5,
8010,
1011,
1010,
1,
10001011,
6,
8,
5,
8,
10111010,
1010,
10001011,
1110,
2002,
20002022,
2020,
20002022,
2,
2022,
2,
2,
3010,
10001011,
1110,
1011,
1010,
1111,
5,
,
8,
0022,
2022,
2022,
#GOGOEND
2,
#GOGOSTART
6,
,
,
,
,
,
00
#GOGOEND
80,
#END
COURSE:Hard
LEVEL:5
BALLOON:12
SCOREINIT:
SCOREDIFF:
NOTESDESIGNER2:Colin
#START
20002002,
2021,
20112020,
2021,
20002002,
2011,
1221,
2022,
2022,
1022,
20022020,
2022,
1011,
20222010,
20022010,
2000000020222020,
3,
0300,
3,
0300,
3,
00300300,
3,
7,
80210201,
2022200020100020,
10210211,
2022200010100000,
2,
0200,
2,
,
#GOGOSTART
3111,
10102102,
5,
8343,
30220021,
00220222,
10102011,
1020100020022020,
1000101110001020,
10120120,
20021001,
2000201000102222,
2141,
4141,
40021210,
30212022,
3111,
10102102,
5,
8343,
30220011,
00220212,
10102011,
1020100020022020,
1000101110001020,
1000102011102000,
10210121,
20210120,
10210122,
10210120,
21212121,
2258,
30002002,
2021,
2212,
1044,
3040,
4443,
6,
,
8222,
5082,
2221,
2221,
#GOGOEND
4,
#GOGOSTART
6,
,
,
,
,
,
00
#GOGOEND
80,
#END
COURSE:Oni
LEVEL:8
SCOREINIT:
SCOREDIFF:
NOTESDESIGNER3:Colin
#START
20002002,
2021,
20112020,
2021,
20002002,
2011,
1221,
2022,
2022,
1022,
20022020,
2022,
1011,
20222010,
20022010,
2000200022221222,
1222,
2421,
3212,
0020401010112020,
4000100022222011,
11302302,
3212,
212121211111,
10210201,
2222100020100020,
10211201,
2222101020100000,
2,
0200,
2,
,
#GOGOSTART
3000201020111010,
10121210,
1000101110201000,
4344,
3000201110102000,
1000102011102022,
1000101020001011,
1020101020121010,
10112101,
2000201210102000,
1011101020201010,
1020101120112222,
1443,
3344,
3000004030121020,
1022111122221010,
3000201020111010,
10121210,
1000101110222222,
1434,
30121210,
2010201210102022,
1011101020001020,
1020201110102000,
30210120,
1010201110102000,
10210120,
1011201120102222,
10210120,
11210120,
10210121,
2000201122222222,
1222,
30220120,
3000200020121010,
3122,
3000201110201000,
30221022,
6,
,
80201210,
3020100020112222,
1000201120102222,
2222222220202020,
#GOGOEND
0,
#GOGOSTART
6,
,
,
,
,
,
00
#GOGOEND
80,
#END
COURSE:Edit
LEVEL:9
SCOREINIT:
SCOREDIFF:
NOTESDESIGNER3:bol
#START
#MEASURE 8/4
#SCROLL 0.5
22,
20202000,
22,
200020
#SCROLL 1
22,
#MEASURE 4/4
1111,
1111,
1111,
1111,
1111,
1111,
1111,
4000400011112222,
10212010,
21402020,
30212010,
21401022,
1000201022222211,
11402320,
30212010,
212121211111,
3011201011201110,
2221101120111020,
1011201011201012,
2211101120100012,
1,
#BARLINEOFF
#SCROLL 0.75
0100,
#SCROLL 0.5
1,
00
#SCROLL 1
202002,
#GOGOSTART
#BARLINEON
3022102210221022,
1120112011221222,
1022102210221011,
2111211121112220,
1022102210112012,
1022102110122012,
1022102210221011,
2111201120121022,
1022102110112012,
1021201000221011,
2011201220112012,
1011201000221110,
3011212030122120,
4011212030122120,
3000101010101011,
2111211121112222,
1011201110112011,
1011201120122012,
1011201110112011,
2011211122112110,
1022102210112012,
1022102110122012,
1022102210112011,
2111201122112110,
1011201110112012,
1011201110212012,
1011201110112012,
1022102210112222,
1011201110112012,
1011201110212012,
1011201110112012,
2011201121112222,
1000100010001022,
10121010,
12121212,
1011200021102120,
1000222010002220,
1110222011112222,
1000100010001022,
10121010,
12121212,
1011200021012222,
1022102210112022,
1222111120404040,
#GOGOEND
0,
#GOGOSTART
6,
,
,
,
,
,
00
#GOGOEND
80,
#END