Files
Colins_Custom_Charts/03 VOCALOID/One/One.tja
T
2025-12-20 15:52:49 -05:00

300 lines
3.5 KiB
Plaintext

TITLE:「1」
SUBTITLE:--164 feat. Leo/need / Project SEKAI COLORFUL STAGE!
TITLEJA:「1」
SUBTITLEJA:164 feat. Leo/need 「プロジェクトセカイ カラフルステージ!」より
PREIMAGE:One.png
BGMOVIE:One.mp4
BPM:145
OFFSET:-0.028
DEMOSTART:43.890
WAVE:One.ogg
MAKER:Colin
COURSE:Oni
LEVEL:8
BALLOON:40
SCOREINIT:
SCOREDIFF:
NOTESDESIGNER3:Colin
#START
1101011120121101,
2111201011010111,
200000100200100100000100000100101010200200100000,
1101211120121101,
2111201011010111,
2012110121112210,
1101211120121101,
2111201011010111,
2012110101112210,
1001001120101101,
1010201011011010,
2010110111102010,
1101101120111101,
1010201011011011,
2012110112112010,
1001101120121101,
1010201011011010,
200000100200100100000100100100101010200000100000,
1001001120101101,
1010202010012011,
200000101010100000101010200200101010100000100000,
3003003040020011,
1011221030030030,
400000000100200000200000200000101010200200100000,
#BPMCHANGE 150
#SCROLL 0.966667
1001102011012000,
#MEASURE 6/4
111020112011201000303030,
002020
#GOGOSTART
100010201211102010,
001020121110201000102022,
101020100010201211102010,
001020121110201000102012,
111020100010201211102010,
002020100010101000102012,
111020100010201211102010,
001020221010201000102020,
100010001000200020002000
#GOGOEND
100000000000100000100000200000000100100000100000,
101110102000200030000010,
400400112012101020112022,
100010102002001020020010,
202222
#GOGOSTART
100010201211102010,
001020121110201000102012,
111020100020201020102010,
300010102002001020021010,
201120112000201020020011,
2002001020112011
#GOGOEND
10010010,
200000100100200000000100000000100000200000100000200000101010200200100000,
160000,
870000000000,
000800,
#END
COURSE:Hard
LEVEL:4
BALLOON:2,35
SCOREINIT:
SCOREDIFF:
NOTESDESIGNER2:Colin
#START
1001001020101001,
0010201010010010,
2010100100102010,
1001001020101001,
0010201010010010,
2010100100102010,
1001001020101001,
0010201010010010,
2010100100102010,
1001001010101001,
01111010,
10500822,
50811020,
20205858,
58508022,
1001001010101001,
01111010,
10500822,
50811020,
20205858,
58508022,
3003003030000000,
0020202030030030,
30000022,
#BPMCHANGE 150
#SCROLL 0.966667
30030030,
#MEASURE 6/4
033030360008,
000
#GOGOSTART
101201202,
022201120111,
111101110225,
,
,
000802210110,
110102220111,
011120220220,
0011
#GOGOEND
20202025,
082050086000,
008000,
302020220020,
102
#GOGOSTART
700000000,
802011210120,
112101201121,
303030,
303030,
3000000030000000
#GOGOEND
20020020,
200020020020200000000000,
060000,
870000000000,
08,
#END
COURSE:Normal
LEVEL:1
BALLOON:12
SCOREINIT:
SCOREDIFF:
NOTESDESIGNER1:Colin
#START
2,
0020,
,
1110,
0011,
1,
1110,
0011,
1,
2002,
0020,
0200,
1112,
2222,
5008,
1001,
0011,
1100,
5,
,
0080,
3330,
0033,
3,
#BPMCHANGE 150
#SCROLL 0.966667
2122,
#MEASURE 6/4
100000000333,
000
#GOGOSTART
100101000,
111011,
101110,
111011,
101110,
222022,
200020220002,
000200220220,
0011
#GOGOEND
10101011,
011050,
08,
5,
000
#GOGOSTART
000000000,
800020020010,
101100101011,
111011,
101110,
2222
#GOGOEND
70,
08,
060000,
,
08,
#END
COURSE:Easy
LEVEL:1
BALLOON:12
SCOREINIT:
SCOREDIFF:
NOTESDESIGNER0:Colin
#START
2,
0020,
,
1010,
0010,
1,
1010,
0010,
1,
2002,
0020,
0200,
1010,
2020,
5008,
1001,
0010,
1100,
5,
,
0080,
3330,
0033,
3,
#BPMCHANGE 150
#SCROLL 0.966667
2102,
#MEASURE 6/4
100000000333,
000
#GOGOSTART
100001000,
101000,
101010,
001010,
11,
202000,
200020020000,
000200020020,
0010
#GOGOEND
10100001,
001050,
08,
5,
000
#GOGOSTART
000000000,
800020020010,
100100100001,
111010,
101010,
2020
#GOGOEND
70,
08,
060000,
,
08,
#END