generated from DragonRatTiger/Custom-Charts
621 lines
5.7 KiB
Plaintext
621 lines
5.7 KiB
Plaintext
TITLE:SnowMix♪
|
|
SUBTITLE:--marasy feat. Miku Hatsune
|
|
TITLEJA:SnowMix♪
|
|
BGMOVIE:SnowMix.mp4
|
|
SUBTITLEJA:まらしぃ feat. 初音ミク
|
|
PREIMAGE:SnowMix.png
|
|
BPM:185
|
|
OFFSET:-0.028
|
|
DEMOSTART:64.730
|
|
WAVE:SnowMix.ogg
|
|
MAKER:Colin
|
|
|
|
COURSE:Easy
|
|
LEVEL:4
|
|
BALLOON:125
|
|
SCOREINIT:
|
|
SCOREDIFF:
|
|
NOTESDESIGNER0:Colin
|
|
|
|
#START
|
|
2,
|
|
2,
|
|
2020,
|
|
2,
|
|
2,
|
|
2,
|
|
2020,
|
|
2,
|
|
1,
|
|
1,
|
|
1010,
|
|
1,
|
|
1,
|
|
1,
|
|
1010,
|
|
1,
|
|
1010,
|
|
1,
|
|
2020,
|
|
2,
|
|
2020,
|
|
2,
|
|
2020,
|
|
2,
|
|
2020,
|
|
2,
|
|
2020,
|
|
2,
|
|
2020,
|
|
2,
|
|
1010,
|
|
1,
|
|
1010,
|
|
1,
|
|
1,
|
|
1,
|
|
1010,
|
|
1,
|
|
1,
|
|
1,
|
|
1010,
|
|
1,
|
|
1,
|
|
1,
|
|
1,
|
|
1,
|
|
1010,
|
|
1,
|
|
5,
|
|
0800,
|
|
#GOGOSTART
|
|
30030000,
|
|
00000
|
|
#GOGOEND
|
|
000,
|
|
#GOGOSTART
|
|
1010,
|
|
1,
|
|
2020,
|
|
2,
|
|
101
|
|
#GOGOEND
|
|
0,
|
|
1,
|
|
#GOGOSTART
|
|
30030000,
|
|
00000
|
|
#GOGOEND
|
|
000,
|
|
#GOGOSTART
|
|
1010,
|
|
1,
|
|
2020,
|
|
2,
|
|
1010,
|
|
10000
|
|
#GOGOEND
|
|
000,
|
|
#GOGOSTART
|
|
7,
|
|
,
|
|
,
|
|
,
|
|
,
|
|
,
|
|
,
|
|
,
|
|
8020,
|
|
2,
|
|
2020,
|
|
2,
|
|
#GOGOEND
|
|
2020,
|
|
20000001,
|
|
0010,
|
|
1,
|
|
#GOGOSTART
|
|
40040000,
|
|
00000
|
|
#GOGOEND
|
|
000,
|
|
#GOGOSTART
|
|
1010,
|
|
1,
|
|
2020,
|
|
2,
|
|
101
|
|
#GOGOEND
|
|
0,
|
|
1,
|
|
#GOGOSTART
|
|
30030000,
|
|
00000
|
|
#GOGOEND
|
|
000,
|
|
#GOGOSTART
|
|
1010,
|
|
1,
|
|
#GOGOEND
|
|
20020020,
|
|
02002020,
|
|
5008,
|
|
,
|
|
#GOGOSTART
|
|
20020000,
|
|
,
|
|
2020,
|
|
2,
|
|
20020000,
|
|
1010,
|
|
1,
|
|
,
|
|
20020020,
|
|
02000000,
|
|
1,
|
|
1010,
|
|
#GOGOEND
|
|
30030030,
|
|
03004400,
|
|
,
|
|
,
|
|
,
|
|
,
|
|
#END
|
|
|
|
COURSE:Normal
|
|
LEVEL:5
|
|
BALLOON:125
|
|
SCOREINIT:
|
|
SCOREDIFF:
|
|
NOTESDESIGNER1:Colin
|
|
#START
|
|
2020,
|
|
2,
|
|
2020,
|
|
2,
|
|
2020,
|
|
2,
|
|
2020,
|
|
2,
|
|
1010,
|
|
1,
|
|
1010,
|
|
1,
|
|
1010,
|
|
1,
|
|
1011,
|
|
1010,
|
|
1011,
|
|
1,
|
|
2021,
|
|
2,
|
|
2021,
|
|
2,
|
|
2021,
|
|
2,
|
|
2021,
|
|
2,
|
|
2021,
|
|
2010,
|
|
2021,
|
|
2010,
|
|
1011,
|
|
1010,
|
|
1111,
|
|
1,
|
|
10001011,
|
|
1010,
|
|
10001011,
|
|
1010,
|
|
10001011,
|
|
1010,
|
|
10001011,
|
|
1010,
|
|
10001011,
|
|
1010,
|
|
10001011,
|
|
1010,
|
|
1010,
|
|
1,
|
|
5,
|
|
0800,
|
|
#GOGOSTART
|
|
30030000,
|
|
00004
|
|
#GOGOEND
|
|
400,
|
|
#GOGOSTART
|
|
1212,
|
|
1,
|
|
2121,
|
|
2,
|
|
121
|
|
#GOGOEND
|
|
2,
|
|
1,
|
|
#GOGOSTART
|
|
30030000,
|
|
00004
|
|
#GOGOEND
|
|
400,
|
|
#GOGOSTART
|
|
1212,
|
|
1,
|
|
2121,
|
|
2,
|
|
1212,
|
|
10000
|
|
#GOGOEND
|
|
000,
|
|
#GOGOSTART
|
|
7,
|
|
,
|
|
,
|
|
,
|
|
,
|
|
,
|
|
,
|
|
,
|
|
80002022,
|
|
2202,
|
|
20222020,
|
|
2020,
|
|
#GOGOEND
|
|
20222020,
|
|
20002001,
|
|
0010,
|
|
1,
|
|
#GOGOSTART
|
|
40040000,
|
|
00004
|
|
#GOGOEND
|
|
400,
|
|
#GOGOSTART
|
|
1212,
|
|
1,
|
|
2121,
|
|
2,
|
|
121
|
|
#GOGOEND
|
|
2,
|
|
1,
|
|
#GOGOSTART
|
|
30030000,
|
|
00004
|
|
#GOGOEND
|
|
400,
|
|
#GOGOSTART
|
|
1212,
|
|
1,
|
|
#GOGOEND
|
|
20020020,
|
|
02002020,
|
|
5008,
|
|
1011,
|
|
#GOGOSTART
|
|
20020010,
|
|
10001110,
|
|
2020,
|
|
2,
|
|
20020011,
|
|
1111,
|
|
1,
|
|
2022,
|
|
20020020,
|
|
02001110,
|
|
1010,
|
|
1010,
|
|
#GOGOEND
|
|
30030030,
|
|
03004400,
|
|
,
|
|
,
|
|
,
|
|
,
|
|
#END
|
|
|
|
COURSE:Hard
|
|
LEVEL:8
|
|
BALLOON:64
|
|
SCOREINIT:
|
|
SCOREDIFF:
|
|
NOTESDESIGNER2:Colin
|
|
|
|
#START
|
|
20020020,
|
|
02022220,
|
|
00202022,
|
|
02022020,
|
|
20020220,
|
|
02022020,
|
|
00202022,
|
|
02022020,
|
|
20020020,
|
|
02022220,
|
|
00202022,
|
|
02022020,
|
|
20020020,
|
|
02000000,
|
|
10201120,
|
|
10201120,
|
|
10201121,
|
|
,
|
|
22222222,
|
|
22010102,
|
|
01111111,
|
|
11010102,
|
|
02222222,
|
|
22020201,
|
|
01500000,
|
|
8,
|
|
1010201110102000,
|
|
11210120,
|
|
1010201110102000,
|
|
11210120,
|
|
1010201110102000,
|
|
11210120,
|
|
1010201110102000,
|
|
11210120,
|
|
10202022,
|
|
02022020,
|
|
02222222,
|
|
22250008,
|
|
10202022,
|
|
02022020,
|
|
11112222,
|
|
02220000,
|
|
12121020,
|
|
12121020,
|
|
12021211,
|
|
0010101022202000,
|
|
10140010,
|
|
14012012,
|
|
11240011,
|
|
1040002220200000,
|
|
#GOGOSTART
|
|
30030000,
|
|
0000111040
|
|
#GOGOEND
|
|
400020,
|
|
#GOGOSTART
|
|
10210123,
|
|
0010201110102000,
|
|
10120220,
|
|
12011010,
|
|
111101
|
|
#GOGOEND
|
|
44,
|
|
0040004000402220,
|
|
#GOGOSTART
|
|
30030000,
|
|
0000111040
|
|
#GOGOEND
|
|
400020,
|
|
#GOGOSTART
|
|
10210123,
|
|
0010201110102000,
|
|
10120220,
|
|
12011010,
|
|
11110122,
|
|
20204
|
|
#GOGOEND
|
|
400,
|
|
#GOGOSTART
|
|
1010201110102000,
|
|
2022202220202000,
|
|
11201120,
|
|
1110202220202000,
|
|
1010201110102022,
|
|
20211021,
|
|
0010201110102000,
|
|
1022202000400000,
|
|
1001001001001001,
|
|
0010010010010010,
|
|
0100100100100100,
|
|
1001001001002020,
|
|
#GOGOEND
|
|
4444,
|
|
40404406,
|
|
,
|
|
0008,
|
|
#GOGOSTART
|
|
30030000,
|
|
0000111040
|
|
#GOGOEND
|
|
400020,
|
|
#GOGOSTART
|
|
10210123,
|
|
0010201110102000,
|
|
10120220,
|
|
12011010,
|
|
111101
|
|
#GOGOEND
|
|
44,
|
|
0040004000402220,
|
|
#GOGOSTART
|
|
30030000,
|
|
0000111040
|
|
#GOGOEND
|
|
400020,
|
|
#GOGOSTART
|
|
10210123,
|
|
0010201110102000,
|
|
#GOGOEND
|
|
10120220,
|
|
12011010,
|
|
11110122,
|
|
20204400,
|
|
#GOGOSTART
|
|
10210120,
|
|
12021220,
|
|
10201121,
|
|
0010201110102000,
|
|
1000201000102022,
|
|
20201120,
|
|
10201121,
|
|
0010201110102000,
|
|
10210120,
|
|
12021220,
|
|
10201121,
|
|
0010201110102000,
|
|
#GOGOEND
|
|
30430340,
|
|
04003307,
|
|
,
|
|
,
|
|
,
|
|
00000008,
|
|
#END
|
|
|
|
COURSE:Oni
|
|
LEVEL:9
|
|
SCOREINIT:
|
|
SCOREDIFF:
|
|
NOTESDESIGNER3:Colin
|
|
#START
|
|
10210010,
|
|
21022220,
|
|
10201011,
|
|
01011010,
|
|
10210220,
|
|
01012020,
|
|
10101012,
|
|
000200200200111100100222,
|
|
1010201020102222,
|
|
1010201020102222,
|
|
1010201020102222,
|
|
1010201020102222,
|
|
1010102010202222,
|
|
122122111100,
|
|
10201021,
|
|
01211021,
|
|
01211022,
|
|
0020202220202020,
|
|
12121212,
|
|
12012101,
|
|
01111111,
|
|
11022102,
|
|
02222222,
|
|
22021201,
|
|
02112122,
|
|
000000200200200000100000200200200200200020002000,
|
|
1010202210102020,
|
|
11210121,
|
|
1010202210102020,
|
|
2010201000102022,
|
|
1010202210102020,
|
|
1010201010112010,
|
|
11201121,
|
|
1020001120102020,
|
|
101222101222,
|
|
101222101222,
|
|
101222101222,
|
|
101222101222,
|
|
101222101222,
|
|
101222101222,
|
|
101222101222,
|
|
100000001000200020002000100000001000200200200200,
|
|
1000101120102010,
|
|
1020101120001020,
|
|
1020101120101020,
|
|
1020101122112010,
|
|
30141020,
|
|
1040101020221121,
|
|
23440343,
|
|
4040001120200000,
|
|
#GOGOSTART
|
|
3000104011112222,
|
|
1111221120
|
|
#GOGOEND
|
|
400022,
|
|
#GOGOSTART
|
|
11210121,
|
|
0010201120102011,
|
|
10210120,
|
|
1020221010102011,
|
|
101020101122
|
|
#GOGOEND
|
|
1030,
|
|
0030003000112000,
|
|
#GOGOSTART
|
|
3000104011112222,
|
|
1111221120
|
|
#GOGOEND
|
|
400022,
|
|
#GOGOSTART
|
|
1010201000112010,
|
|
0010201120102010,
|
|
1000221010112000,
|
|
1020221010102010,
|
|
1000001000112010,
|
|
21214
|
|
#GOGOEND
|
|
400,
|
|
#GOGOSTART
|
|
1111111122221111,
|
|
2222112211112211,
|
|
2222112211112222,
|
|
1122111122111111,
|
|
2010201120102022,
|
|
2010202022102020,
|
|
1022102210221010,
|
|
4022104022111120,
|
|
1010201211102012,
|
|
1010201211102012,
|
|
1010201211102022,
|
|
1010201211102012,
|
|
#GOGOEND
|
|
10121020,
|
|
1020101120400030,
|
|
111211211111,
|
|
2111221120402220,
|
|
#GOGOSTART
|
|
3000104011112222,
|
|
1111221120
|
|
#GOGOEND
|
|
400022,
|
|
#GOGOSTART
|
|
11210121,
|
|
0010201120102011,
|
|
10211120,
|
|
1020221010102011,
|
|
101020101122
|
|
#GOGOEND
|
|
1030,
|
|
0030003000112000,
|
|
#GOGOSTART
|
|
3000104011112222,
|
|
1111221120
|
|
#GOGOEND
|
|
400022,
|
|
#GOGOSTART
|
|
1010201000112010,
|
|
0010201120102010,
|
|
#GOGOEND
|
|
1121,
|
|
12112121,
|
|
1122111122112211,
|
|
21214400,
|
|
#GOGOSTART
|
|
1011222211222221,
|
|
2022102120112020,
|
|
2222102120102222,
|
|
1020101022221022,
|
|
1010201110102022,
|
|
2010102010112020,
|
|
1010200020102022,
|
|
1000202211221120,
|
|
2012101012102022,
|
|
1010120220221022,
|
|
1210221202102010,
|
|
2011201020222222,
|
|
#GOGOEND
|
|
10121020,
|
|
1020101120100030,
|
|
00201021,
|
|
01201021,
|
|
01211012,
|
|
02020202,
|
|
#END
|