Files
Colins_Custom_Charts/04 Variety/Happy Fake Show/Happy Fake Show.tja
T
2025-06-11 19:53:16 -04:00

569 lines
6.8 KiB
Plaintext

TITLE:Happy Fake Show
SUBTITLE:--Ponchi♪ ft. haxchi / BOFXVII
BPM:156
WAVE:Happy Fake Show.ogg
OFFSET:-0.066
DEMOSTART:120.450
MAKER:Colin & sakurada0291
COURSE:Oni
LEVEL:10
SCOREINIT:
SCOREDIFF:
NOTESDESIGNER3:Colin
#START
000000000000000000000222,
1121212201202121,
0122212101212210,
1120120201212122,
0120112
#SCROLL 1.2
#GOGOSTART
3
#GOGOEND
#SCROLL 1
0
#SCROLL 1.4
#GOGOSTART
3
#GOGOEND
#SCROLL 1
0
#SCROLL 1.6
#GOGOSTART
3
#GOGOEND
#SCROLL 1
0
#SCROLL 1.8
#GOGOSTART
3
#GOGOEND
#SCROLL 1
0
#SCROLL 2
#GOGOSTART
3
#GOGOEND
#SCROLL 1
,
#GOGOSTART
1120212201201121,
0122122101202111,
1120120201201121,
1010120202021202,
#GOGOEND
1011211010211021,
1122102211212022,
1120212210212020,
1120112010121022,
1120112210212012,
1021212011221022,
1012102011221020,
1210201202102222,
1120212201201121,
0122122101202111,
1120120201201122,
100100200000100200000200000100101020201010101010,
1000000000012222,
100000200100202020100200101010200100000200100000,
1020221112121212,
1000000012111111,
2001201211212010,
1011201211102020,
1021202010112121,
1022222102212211,
1020102211221122,
1020102211201020,
101010101010200100100200100000200200100000200000,
1020102012102010,
1121201210212110,
1021201212102022,
100100100100200200200200101010101010202020202020,
1211222211001100,
#GOGOSTART
1011212112102120,
1011201212102120,
1011201212102022,
1010221211202212,
1011201212102022,
1011221212102212,
1211221120112010,
000100200200100200100100100200100000202020200000,
#GOGOEND
1000
#GOGOSTART
112112102120,
1011201212102120,
1011201212102022,
1010221211202212,
1011201212102022,
1011221212102212,
1021222222222210,
0
#SCROLL 2
3
#SCROLL 1.5
3
#SCROLL 1
30000,
#MEASURE 2/4
12,
#MEASURE 3/4
#GOGOEND
112121121212,
112212122222,
111212121121,
#MEASURE 2/4
21212212,
#MEASURE 3/4
111111111111,
202020202020101020222220,
111212121212,
#MEASURE 4/4
100200100200100200100200100200100000200100201010,
2000211212112012,
1021212222112121,
1020122212112022,
1211201212102212,
201010201010200100100200100200100100200100200000,
100000200100200100200200101010200000200100200000,
1011222122122120,
1021221212102020,
2012122212212120,
2211222211212122,
1222121112012100,
2011201210112012,
1011201210112012,
100000100100200000100200100000100200101010202020,
#SCROLL 1.5
3
#SCROLL 2
3
#SCROLL 3
3
#SCROLL 4
3,
#SCROLL 1
#GOGOSTART
1011201211202212,
100000100100200000100200100100200100200000202020,
1222121122121040,
000100200100200100200100100100200100202020200000,
1000112112102120,
1011201212102120,
1011201212102022,
1010221211202212,
1011201212102022,
1011221212102212,
1021222222222210,
03330000,
#GOGOEND
#SCROLL 4
3
#SCROLL 1
000200010212211,
200000000200111111200000,
#END
COURSE:Hard
LEVEL:8
BALLOON:12
SCOREINIT:
SCOREDIFF:
NOTESDESIGNER2:sakurada0291
#START
#BARLINEOFF
,
#BARLINEON
1000220200102000,
0010220200202010,
1000220200102000,
0210220101010101,
#GOGOSTART
1000220100102001,
0010222100201110,
1000220100102021,
0010222101020200,
#GOGOEND
1020102010011020,
0020102010011020,
1020200010020020,
1000200010221020,
1020202220020020,
1022202000221020,
1010101101101020,
1022202202202020,
1000220100102001,
0010222100201110,
1000220100102021,
0010222100222220,
1000000000022010,
1020201020220220,
1020101110220220,
1000000011111010,
1020202220020020,
1022202000221020,
1010101201101020,
1022202102202020,
1000100010001110,
10101011,
12121212,
12122212,
1001202101102000,
1001201101202220,
1001101020022020,
1010202011001100,
#GOGOSTART
1002201010022010,
0020102011011020,
0020102010012020,
0020102011102220,
1000101100102022,
0010202011102020,
1000001120101040,
0040304030002220,
#GOGOEND
1002
#GOGOSTART
201010022010,
0020102011011020,
0020102010012020,
0020102010222020,
1000001120101020,
02121010,
1022202022202030,
03334000,
#MEASURE 2/4
3,
#MEASURE 3/4
#GOGOEND
300000002220,
100000001220,
100000001120,
#MEASURE 2/4
12,
#MEASURE 3/4
100110101000,
202220200000,
100110101000,
#MEASURE 4/4
2022202050000000,
8000200010022010,
0010202220110110,
1020002011102020,
1011002011102220,
1011101020220220,
1001102002201020,
1010222010110110,
1010202011102000,
2010201020110110,
5008,
7008,
0
#SCROLL 0.8
202,
0202,
000020000000
#SCROLL 0.8
2
#SCROLL 0.81
2
#SCROLL 0.82
20,
#SCROLL 0.84
3
#SCROLL 0.88
4
#SCROLL 0.92
3
#SCROLL 0.96
4,
#GOGOSTART
#SCROLL 1
1000101100102022,
0010202011102020,
1000001120101040,
0040304030002220,
#GOGOEND
1000
#GOGOSTART
401010022010,
0020102011011020,
0020102010012020,
0020102010222020,
1000001120101020,
02121010,
1022202022202030,
03334000,
#GOGOEND
1000000020222020,
1010001011104000,
#END
COURSE:Normal
LEVEL:7
BALLOON:12
SCOREINIT:
SCOREDIFF:
NOTESDESIGNER2:sakurada0291
#START
#BARLINEOFF
,
#BARLINEON
1000200200102000,
0010200200002010,
1000200200102000,
0010200100000000,
#GOGOSTART
1000200100102000,
01201000,
1000200100002001,
0212,
#GOGOEND
10101002,
02101000,
1000200010010020,
1122,
1000200020020000,
10220000,
1000100100001000,
20202220,
1000200100102000,
01201000,
1000200100002001,
00201222,
10000021,
1000202020020020,
10111022,
10001110,
1000200020020000,
10220000,
1000100100001000,
20202220,
1111,
1111,
12121210,
12122210,
1000200100102000,
1000200100202000,
1001001020022020,
5008,
#GOGOSTART
1000200010020010,
02121022,
10201122,
02020120,
1000100100002002,
0212,
10022003,
03303022,
#GOGOEND
1000
#GOGOSTART
200010020010,
02121022,
10201122,
01020222,
10022012,
02201010,
10222223,
03330000,
#MEASURE 2/4
3,
#MEASURE 3/4
#GOGOEND
300022,
100012,
100011,
#MEASURE 2/4
12,
#MEASURE 3/4
101110,
202200,
101110,
#MEASURE 4/4
20225000,
80201021,
01201110,
12021020,
1001001010002000,
11102220,
1001002000201020,
1010202010010010,
10201120,
2010201020020020,
5008,
7008,
#SCROLL 0.8
0202,
0202,
020
#SCROLL 0.8
2,
#SCROLL 0.84
3
#SCROLL 0.88
4
#SCROLL 0.92
3
#SCROLL 0.96
4,
#GOGOSTART
#SCROLL 1
1000100100002002,
0212,
10022003,
03303000,
#GOGOEND
1000
#GOGOSTART
000010020010,
02121022,
10201122,
01020222,
10022012,
02201010,
10222223,
03330000,
#GOGOEND
10002220,
11011040,
#END
COURSE:Easy
LEVEL:4
BALLOON:12
SCOREINIT:
SCOREDIFF:
NOTESDESIGNER2:sakurada0291
#START
#BARLINEOFF
,
#BARLINEON
1202,
0202,
1202,
0000200100000000,
#GOGOSTART
1202,
1110,
1202,
1012,
#GOGOEND
10001002,
0010,
1110,
1020,
1020,
10020000,
1101,
2202,
1202,
1110,
1202,
1012,
1002,
1020,
1112,
1011,
1020,
10020000,
1101,
2202,
1010,
1010,
1110,
1120,
1202,
1202,
1020,
5008,
#GOGOSTART
10001001,
0112,
10200022,
02020000,
1102,
1212,
10002003,
0330,
#GOGOEND
10
#GOGOSTART
001001,
0112,
10001002,
01020000,
10002002,
0011,
10202023,
00030000,
#MEASURE 2/4
3,
#MEASURE 3/4
#GOGOEND
3,
1,
101,
#MEASURE 2/4
12,
#MEASURE 3/4
101,
200200,
101,
#MEASURE 4/4
2250,
8210,
1011,
1012,
1012,
1122,
10020010,
1210,
1212,
2222,
5008,
7008,
#SCROLL 0.8
0202,
0202,
0
#SCROLL 0.8
20
#SCROLL 0.857143
2,
#SCROLL 0.885714
3
#SCROLL 0.914286
4
#SCROLL 0.942857
3
#SCROLL 0.971429
4,
#GOGOSTART
#SCROLL 1
1102,
1212,
10002003,
0330,
#GOGOEND
10
#GOGOSTART
001001,
0112,
10001002,
01020000,
10002002,
0011,
10202023,
00030000,
#GOGOEND
3002,
1014,
#END