generated from DragonRatTiger/Custom-Charts
434 lines
4.5 KiB
Plaintext
434 lines
4.5 KiB
Plaintext
TITLE:La Prière
|
|
SUBTITLE:--XinG
|
|
TITLEJA:La Prière
|
|
SUBTITLEJA:XinG
|
|
PREIMAGE:La Priere.jpg
|
|
WAVE:La Priere.ogg
|
|
BPM:165
|
|
OFFSET:-0.015
|
|
DEMOSTART:82.9241
|
|
MAKER:Colin
|
|
|
|
COURSE:Easy
|
|
LEVEL:3
|
|
SCOREINIT:
|
|
SCOREDIFF:
|
|
NOTESDESIGNER0:Colin
|
|
|
|
#START
|
|
,
|
|
3,
|
|
,
|
|
,
|
|
,
|
|
1010,
|
|
1110,
|
|
1010,
|
|
1110,
|
|
2020,
|
|
2,
|
|
5,
|
|
,
|
|
8,
|
|
4,
|
|
3,
|
|
4,
|
|
3,
|
|
3010,
|
|
1110,
|
|
2020,
|
|
5,
|
|
8,
|
|
1110,
|
|
3010,
|
|
1,
|
|
2020,
|
|
2,
|
|
1010,
|
|
1,
|
|
2020,
|
|
2,
|
|
1010,
|
|
1,
|
|
2020,
|
|
2,
|
|
1010,
|
|
1,
|
|
2020,
|
|
2,
|
|
3,
|
|
,
|
|
,
|
|
,
|
|
2,
|
|
2020,
|
|
2,
|
|
2,
|
|
3010,
|
|
1110,
|
|
2020,
|
|
2220,
|
|
1010,
|
|
1110,
|
|
2020,
|
|
2,
|
|
3,
|
|
#GOGOSTART
|
|
3011,
|
|
1010,
|
|
2022,
|
|
2020,
|
|
1010,
|
|
1,
|
|
1010,
|
|
1110,
|
|
#GOGOEND
|
|
3,
|
|
#GOGOSTART
|
|
2020,
|
|
22
|
|
#GOGOEND
|
|
20,
|
|
#GOGOSTART
|
|
2020,
|
|
2220,
|
|
1010,
|
|
1110,
|
|
2020,
|
|
#GOGOEND
|
|
4,
|
|
4,
|
|
4,
|
|
3,
|
|
3,
|
|
3,
|
|
3,
|
|
3,
|
|
#MEASURE 8/4
|
|
30,
|
|
#GOGOSTART
|
|
#SCROLL 5
|
|
600
|
|
#GOGOEND
|
|
#SCROLL 1
|
|
8000000000000,
|
|
#END
|
|
|
|
COURSE:Normal
|
|
LEVEL:5
|
|
SCOREINIT:
|
|
SCOREDIFF:
|
|
NOTESDESIGNER1:Colin
|
|
|
|
#START
|
|
,
|
|
3,
|
|
,
|
|
,
|
|
,
|
|
1110,
|
|
10111000,
|
|
1110,
|
|
10111000,
|
|
2222,
|
|
2222,
|
|
5,
|
|
,
|
|
8,
|
|
4,
|
|
3,
|
|
4,
|
|
3,
|
|
30101011,
|
|
1110,
|
|
20202022,
|
|
5,
|
|
8,
|
|
1110,
|
|
30111010,
|
|
1,
|
|
20222020,
|
|
2020,
|
|
10111010,
|
|
1010,
|
|
20222020,
|
|
2020,
|
|
10001011,
|
|
1110,
|
|
20202022,
|
|
2220,
|
|
1110,
|
|
1110,
|
|
20202022,
|
|
2020,
|
|
3,
|
|
,
|
|
,
|
|
,
|
|
2,
|
|
20022020,
|
|
2020,
|
|
2,
|
|
30001011,
|
|
1110,
|
|
20002022,
|
|
2220,
|
|
10011001,
|
|
1110,
|
|
2220,
|
|
2,
|
|
3,
|
|
#GOGOSTART
|
|
30001011,
|
|
1110,
|
|
20002022,
|
|
2220,
|
|
10001011,
|
|
1110,
|
|
10001011,
|
|
1110,
|
|
#GOGOEND
|
|
3,
|
|
#GOGOSTART
|
|
2022,
|
|
2022
|
|
#GOGOEND
|
|
2000,
|
|
#GOGOSTART
|
|
20002022,
|
|
2220,
|
|
10001011,
|
|
1110,
|
|
2022,
|
|
#GOGOEND
|
|
4020,
|
|
4020,
|
|
4,
|
|
3030,
|
|
3,
|
|
3030,
|
|
3,
|
|
3030,
|
|
#MEASURE 8/4
|
|
30,
|
|
#GOGOSTART
|
|
#SCROLL 5
|
|
600
|
|
#GOGOEND
|
|
#SCROLL 1
|
|
8000000000000,
|
|
#END
|
|
|
|
COURSE:Hard
|
|
LEVEL:6
|
|
SCOREINIT:
|
|
SCOREDIFF:
|
|
NOTESDESIGNER2:Colin
|
|
|
|
#START
|
|
,
|
|
3,
|
|
,
|
|
,
|
|
00002222,
|
|
1111,
|
|
1111,
|
|
1111,
|
|
1111,
|
|
11111111,
|
|
11111111,
|
|
11111111,
|
|
5008,
|
|
4,
|
|
3,
|
|
3,
|
|
3,
|
|
3,
|
|
3002002010001010,
|
|
2022202010002000,
|
|
1011100010201020,
|
|
1010200110102020,
|
|
3,
|
|
33333333,
|
|
3003003000000000,
|
|
2001111110201000,
|
|
3003003030000000,
|
|
1020101110102000,
|
|
3003003030000000,
|
|
2201102010201020,
|
|
3003003030000000,
|
|
200020002000200000000000200000200200200000200000,
|
|
1001002010010020,
|
|
1001002010010020,
|
|
1001002010010020,
|
|
1001002010010020,
|
|
1001002030000000,
|
|
3020100110102000,
|
|
1001101010002000,
|
|
1020100110102000,
|
|
30020000,
|
|
200000200002000200200200,
|
|
12002000,
|
|
00000021,
|
|
20020000,
|
|
10020020,
|
|
2000000000000022,
|
|
200000000000100002000200,
|
|
1000001000001011,
|
|
10212011,
|
|
1010000020010020,
|
|
1000000020000011,
|
|
10012012,
|
|
1000000020020020,
|
|
1000101000101011,
|
|
10212122,
|
|
3,
|
|
#GOGOSTART
|
|
1010200110102000,
|
|
11201211,
|
|
1010200110102000,
|
|
11221212,
|
|
1010200110102000,
|
|
11201122,
|
|
10201122,
|
|
10221122,
|
|
#GOGOEND
|
|
1001001010101000,
|
|
#GOGOSTART
|
|
3001002220102000,
|
|
1120
|
|
#GOGOEND
|
|
1000,
|
|
#GOGOSTART
|
|
11221122,
|
|
1022200010102020,
|
|
10201122,
|
|
10201122,
|
|
1002001010201020,
|
|
#GOGOEND
|
|
3003003030101010,
|
|
2002011110201000,
|
|
4004004030000000,
|
|
1011102010201020,
|
|
3003003030000000,
|
|
1022201110201020,
|
|
3003003030000000,
|
|
101101100300,
|
|
#MEASURE 8/4
|
|
40,
|
|
#GOGOSTART
|
|
#SCROLL 5
|
|
600
|
|
#GOGOEND
|
|
#SCROLL 1
|
|
8000000000000,
|
|
#END
|
|
|
|
COURSE:Oni
|
|
LEVEL:10
|
|
SCOREINIT:
|
|
SCOREDIFF:
|
|
NOTESDESIGNER3:Colin
|
|
|
|
#START
|
|
,
|
|
3,
|
|
,
|
|
,
|
|
0000000020202222,
|
|
12121212,
|
|
12121212,
|
|
12121212,
|
|
12121212,
|
|
11111111,
|
|
11111111,
|
|
11111111,
|
|
100100100100100100100100101010101010100000100000,
|
|
3,
|
|
1211212120201020,
|
|
1212102021212010,
|
|
1021012012211020,
|
|
1212212211221020,
|
|
1222012122111211,
|
|
1212112121122211,
|
|
2122112122020120,
|
|
100100200200100100200200101010101010100000100000,
|
|
1010201202221020,
|
|
1010201022112020,
|
|
4012012030101020,
|
|
300000101010100200100200100200100100200200100100,
|
|
2012012030101010,
|
|
100200101010100200101010100000100200100000100000,
|
|
4012012030101010,
|
|
100200101010100200101010100100100200100200100200,
|
|
2012012030101010,
|
|
200010001000200010001000100200100100200000100000,
|
|
3021021011210210,
|
|
3021012110210212,
|
|
1021021011210210,
|
|
3021012110210212,
|
|
1021021012111210,
|
|
3021021011210210,
|
|
3021012110210212,
|
|
1020121111221122,
|
|
10120000,
|
|
200000100002000100200100,
|
|
12012000,
|
|
00000021,
|
|
21120000,
|
|
12120020,
|
|
1020102000000022,
|
|
1000000030040040,
|
|
3000001000001022,
|
|
10112011,
|
|
1020100010010020,
|
|
1020100020002022,
|
|
10012012,
|
|
1000101020020020,
|
|
1010201010202012,
|
|
100100100100200200200200102020102020100000100000,
|
|
3,
|
|
#GOGOSTART
|
|
2202112122121212,
|
|
1211221110403040,
|
|
1122112212112212,
|
|
1121212210201120,
|
|
1020122120202120,
|
|
2112112211212122,
|
|
103030303030,
|
|
1122112120403040,
|
|
#GOGOEND
|
|
100000100100000100100200100000100000101010100000,
|
|
#GOGOSTART
|
|
2201011122111212,
|
|
10202122
|
|
#GOGOEND
|
|
10
|
|
#SCROLL 2
|
|
4
|
|
#SCROLL 1
|
|
00000,
|
|
#GOGOSTART
|
|
2121212211212211,
|
|
2112112112111020,
|
|
2112112112112112,
|
|
100200101010200100201010200200101010200100200100,
|
|
2004004030121122,
|
|
#GOGOEND
|
|
1021021010201020,
|
|
100000101010100200101010100200100200200200200100,
|
|
2021021011212122,
|
|
100000101010100200101010100100200100200200100200,
|
|
1021021010101010,
|
|
100100202020100200101010100200100200100200100100,
|
|
1021021010102020,
|
|
200010001000200010001000100200100100200000100000,
|
|
#MEASURE 8/4
|
|
40,
|
|
#GOGOSTART
|
|
#SCROLL 5
|
|
600
|
|
#GOGOEND
|
|
#SCROLL 1
|
|
8000000000000,
|
|
#END |