Files
Colins_Custom_Charts/04 Variety/whirlwind/whirlwind.tja
T
2025-06-11 19:53:16 -04:00

486 lines
6.4 KiB
Plaintext
Raw Blame History

This file contains ambiguous Unicode characters
This file contains Unicode characters that might be confused with other characters. If you think that this is intentional, you can safely ignore this warning. Use the Escape button to reveal them.
TITLE:whirlwind
SUBTITLE:--Linne×SCTL / 【PABAT!2017】
TITLEJA:whirlwind
SUBTITLEJA:Linne×SCTL 【PABAT!2017】
PREIMAGE:whirlwind.png
BGMOVIE:whirlwind.mp4
WAVE:whirlwind.ogg
BPM:140
OFFSET:-0.139
DEMOSTART:35.924
MAKER:Colin & DiamondN1nja
COURSE:Easy
LEVEL:2
BALLOON:4
SCOREINIT:
SCOREDIFF:
NOTESDESIGNER0:Colin
#START
0010,
4,
1,
1,
1,
4110,
1110,
1110,
1110,
3110,
1110,
1110,
2220,
2220,
2220,
2220,
2220,
1010,
1,
#BARLINEOFF
0,
,
#GOGOSTART
#BARLINEON
1120,
1120,
1120,
1210,
1110,
1210,
2220,
1110,
1020,
1210,
1020,
1210,
1020,
1210,
1020,
1111,
#GOGOEND
3110,
1110,
2220,
1110,
2220,
1110,
1110,
1110,
4010,
1110,
2010,
1110,
4010,
1110,
2010,
4110,
#GOGOSTART
2220,
1110,
#GOGOEND
2010,
2120,
1020,
1110,
2010,
2120,
#GOGOSTART
1110,
1110,
2120,
1110,
#GOGOEND
7
#GOGOSTART
810,
1110,
1010,
1,
#GOGOEND
0600,
0000000000000008,
#END
COURSE:Normal
LEVEL:5
BALLOON:4
SCOREINIT:
SCOREDIFF:
NOTESDESIGNER1:Colin
#START
0010,
4,
1,
1,
1,
4110,
10101011,
10101011,
1110,
30101011,
1110,
10101022,
2220,
20202022,
2220,
20202022,
2220,
1011,
1,
#BARLINEOFF
0,
,
#GOGOSTART
#BARLINEON
10102011,
1120,
10102011,
1210,
10101011,
1210,
20202022,
1110,
10102011,
1210,
10102011,
1210,
10102011,
1211,
1020,
10111011,
#GOGOEND
3110,
1110,
20222020,
1110,
2220,
10111010,
1110,
1111,
40001011,
1110,
20001011,
1110,
4010,
10111010,
2010,
40111010,
#GOGOSTART
2220,
1111,
#GOGOEND
2010,
20102011,
10002011,
1110,
20001011,
2120,
#GOGOSTART
10101011,
1110,
20112010,
1110,
#GOGOEND
70
#GOGOSTART
801011,
1110,
1110,
1111,
#GOGOEND
0600,
0000000000000008,
#END
COURSE:Hard
LEVEL:7
BALLOON:4
SCOREINIT:
SCOREDIFF:
NOTESDESIGNER2:Colin
#START
00001122,
40010000,
10020010,
10010020,
10020022,
10021020,
20010020,
10020022,
1010,
1022000010102000,
1022200010101110,
1022000010102000,
1022200010101110,
1022000010102000,
1022200010101110,
1022000010102000,
1022200010101110,
4,
,
#BARLINEOFF
0200,
0020000000000011,
#GOGOSTART
#BARLINEON
1022202010001010,
1110200010102000,
2220222022202020,
10201121,
10201120,
10201121,
20221020,
10201122,
1022201110102010,
2220111020201010,
2010201110102000,
1110200011102020,
10201120,
10201120,
1110200011102010,
1110202010002000,
#GOGOEND
1022000010102000,
1022200010101110,
1022000010102000,
1022200010101110,
1022000010102000,
1022200010101110,
1022000010102000,
1022200010101110,
10201120,
10201111,
2000100011102000,
10201120,
10201120,
1000200011101111,
10201120,
1000222220002000,
#GOGOSTART
1110101100222022,
2000202011102020,
#GOGOEND
10201120,
10201111,
22201011,
1111,
1110222011102220,
1110222011102000,
#GOGOSTART
1010201110102000,
1010100022202020,
1010200010002220,
5008,
#GOGOEND
7
#GOGOSTART
812,
1010200011102011,
10201121,
1000100010101022,
#GOGOEND
0600,
0000000000000008,
#END
COURSE:Oni
LEVEL:9
BALLOON:
SCOREINIT:600
SCOREDIFF:50
NOTESDESIGNER3:SenpuuN1nja
#START
00001122,
1000201000000022,
12210020,
10210110,
1121212212121122,
1000102010001220,
1022121011121220,
1222121011221220,
1212102221212210,
1022122202220222,
1022101101212212,
1022122202220222,
100100200200100100200200200100200100200100202020,
1022122202220222,
1022101101212212,
1022122202220222,
1122112221212122,
1022122211221221,
11122000,
#BARLINEOFF
0200,
0020000000000011,
#GOGOSTART
#BARLINEON
2011202010201011,
200200100100200000100100200200100100200000101010,
200100100100200100100100200100200100000000101010,
2222121222121112,
1022201022201000,
200200100100202020100100100100200200100200200100,
1022102011212010,
1022101120111011,
2011202010201011,
200200100100200000100100200200100100200000101010,
200100100100200100100100200100200100000000101010,
2222121222121112,
1022201022201000,
200200100100202020100100100100200200100200200100,
1022122211212210,
100000200200100000100100200000100100100000202020,
#GOGOEND
1022122202220222,
1022101101212212,
1022122202220222,
100100200200100100200200200100200100200100202020,
1022122202220222,
1022101101212212,
1022122202220222,
1122112221212122,
1022122202220222,
1022101101212212,
1022122202220222,
100100200200100100200200200100200100200100202020,
1022122202220222,
1022101101212212,
1022122202220222,
1122112221212122,
#GOGOSTART
1012101122121022,
1122122211121110,
#GOGOEND
1111202221112012,
2211211122111222,
2012102012101022,
1122122211121110,
1111202221112012,
200200100100200100100100200100200200200000101010,
#GOGOSTART
2011202011221211,
2212121122121122,
0022011022011020,
100020002000100020002000100200200200100100200200,
#GOGOEND
100000002020
#GOGOSTART
100200200200100100200200100200100000,
1020102212221110,
200000101010200200100000200000101010200200100000,
1122122211221221,
#GOGOEND
0500,
,
0800,
#END
COURSE:Edit
LEVEL:10
SCOREINIT:600
SCOREDIFF:50
NOTESDESIGNER4:Colin
#START
00001122,
4000001000000022,
11121020,
2011012111221111,
2211221122112121,
2021012110112122,
2112221111111122,
2211111111112112,
2211222121222211,
2012022121210122,
2011201201210121,
2012022112020212,
200100100200200100200200100100200100100200101010,
2012021121210121,
2011201202120121,
2012022121210111,
2112222211221222,
2022111111111111,
11112000,
#BARLINEOFF
0200,
0020000000000011,
#GOGOSTART
#BARLINEON
2011202021212111,
200100100100200100100100200100100100100200202020,
200100100100200100100100200200200200202020201010,
2111211211112212,
1111101122112111,
200200200200101010200100200100100200200200100100,
2011202121211122,
1011221122112022,
2011202011212122,
100100100100200200100100100100200200100100101010,
200200100100200200100100200200100100101010200100,
200100200100200200100100200100100100101010102020,
1111112122112122,
100200100100101010200200100100100200200200200200,
2111222222221111,
200000100100200000100100200200100000202020202020,
#GOGOEND
2012022121210122,
2011201201210121,
2012022112020212,
200100100200200100200200100100200100100200101010,
2012022121210122,
2011201201210121,
2012022112020212,
200100100200200100200200100100200100100200101010,
2012022121210122,
2011201201210121,
2012022112020212,
200100100200200100200200100100200100100200101010,
2012022121210122,
2011201201210121,
2012022112020212,
200100100200200100200200100100200100100200101010,
#GOGOSTART
2121201201212122,
2111211122111112,
#GOGOEND
2211222221111212,
1221211121111212,
2021201201212122,
2111212111111112,
2111222211112222,
1111211121112111,
#GOGOSTART
2121201122121121,
2112111212222112,
0120112022112022,
100010001000200010001000200200101010200200200200,
#GOGOEND
200000202020
#GOGOSTART
100100100200100100100100200100100100,
1121221121212212,
100100200200100100101010200100100100200100200100,
2211201122221212,
#GOGOEND
0600,
0000000000000008,
#END