generated from DragonRatTiger/Custom-Charts
717 lines
9.4 KiB
Plaintext
717 lines
9.4 KiB
Plaintext
TITLE:Apollo
|
|
SUBTITLE:--TJ.hangneil / O.N.G.E.K.I. R.E.D. PLUS
|
|
TITLEJA:Apollo
|
|
SUBTITLEJA:TJ.hangneil「オンゲキ R.E.D. PLUS」より
|
|
BGMOVIE:Apollo.mp4
|
|
PREIMAGE:Apollo.png
|
|
BPM:137
|
|
OFFSET:-0.907
|
|
DEMOSTART:92.5731
|
|
WAVE:Apollo.ogg
|
|
MAKER:Colin
|
|
|
|
COURSE:Easy
|
|
LEVEL:4
|
|
BALLOON:56,64
|
|
SCOREINIT:
|
|
SCOREDIFF:
|
|
NOTESDESIGNER0:Colin
|
|
|
|
#START
|
|
1010,
|
|
1,
|
|
1010,
|
|
1,
|
|
#GOGOSTART
|
|
1010,
|
|
1110,
|
|
1010,
|
|
1110,
|
|
1020,
|
|
1210,
|
|
1020,
|
|
1210,
|
|
#GOGOEND
|
|
2022,
|
|
2020,
|
|
2022,
|
|
2020,
|
|
2022,
|
|
2020,
|
|
2022,
|
|
2020,
|
|
3003003000000000,
|
|
3003003000000000,
|
|
3003003000000000,
|
|
3003003000000000,
|
|
4004004000000000,
|
|
4004004000000000,
|
|
4004004000000000,
|
|
1011,
|
|
#MEASURE 7/4
|
|
#BPMCHANGE 210
|
|
1000000,
|
|
1000000,
|
|
10000002000000,
|
|
10000002000000,
|
|
10001002000000,
|
|
1010100,
|
|
2020200,
|
|
1020111,
|
|
#BPMCHANGE 220
|
|
10001002000000,
|
|
1010100,
|
|
#BPMCHANGE 230
|
|
2020200,
|
|
#BPMCHANGE 240
|
|
1020111,
|
|
#BPMCHANGE 250
|
|
7000000,
|
|
,
|
|
#MEASURE 1/4
|
|
#BPMCHANGE 780
|
|
#SCROLL 2.4
|
|
8,
|
|
#SCROLL 2.3
|
|
0,
|
|
#SCROLL 2.2
|
|
0,
|
|
#SCROLL 2.2
|
|
0,
|
|
#SCROLL 2.1
|
|
0,
|
|
#SCROLL 2
|
|
0,
|
|
#SCROLL 1.9
|
|
0,
|
|
#SCROLL 1.8
|
|
0,
|
|
#SCROLL 1.7
|
|
0,
|
|
#SCROLL 1.6
|
|
0,
|
|
#SCROLL 1.5
|
|
0,
|
|
#SCROLL 1.4
|
|
0,
|
|
#SCROLL 1.3
|
|
0,
|
|
#SCROLL 1.2
|
|
0,
|
|
#SCROLL 1.1
|
|
0,
|
|
#SCROLL 1
|
|
0,
|
|
#SCROLL 0.9
|
|
0,
|
|
#SCROLL 0.8
|
|
0,
|
|
#SCROLL 0.7
|
|
0,
|
|
#SCROLL 0.6
|
|
0,
|
|
#SCROLL 0.5
|
|
0,
|
|
#SCROLL 0.4
|
|
0,
|
|
#SCROLL 0.3
|
|
0,
|
|
#SCROLL 0.2
|
|
0,
|
|
#MEASURE 4/4
|
|
#BPMCHANGE 137
|
|
#SCROLL 1
|
|
2,
|
|
1,
|
|
2,
|
|
1,
|
|
1110,
|
|
1110,
|
|
2210,
|
|
1,
|
|
#GOGOSTART
|
|
3110,
|
|
2220,
|
|
1110,
|
|
2220,
|
|
1110,
|
|
2220,
|
|
1110,
|
|
2220,
|
|
4004004000000000,
|
|
4004004000000000,
|
|
4004004000000000,
|
|
3003003000000000,
|
|
4004004000000000,
|
|
3003003000000000,
|
|
4004004000000000,
|
|
3003003000303030,
|
|
3212,
|
|
1010,
|
|
1210,
|
|
1110,
|
|
2210,
|
|
1210,
|
|
1210,
|
|
100010001010101
|
|
#GOGOEND
|
|
0,
|
|
#MEASURE 3/4
|
|
#BPMCHANGE 200
|
|
100,
|
|
#MEASURE 7/4
|
|
#BPMCHANGE 240
|
|
2002220,
|
|
2002220,
|
|
#BPMCHANGE 250
|
|
1001110,
|
|
1001110,
|
|
#BPMCHANGE 270
|
|
2002220,
|
|
#BPMCHANGE 285
|
|
2002220,
|
|
#BPMCHANGE 300
|
|
1001110,
|
|
#BPMCHANGE 315
|
|
1001110,
|
|
#MEASURE 4/4
|
|
#BPMCHANGE 33.9
|
|
#SCROLL 10
|
|
70000008,
|
|
#END
|
|
|
|
COURSE:Normal
|
|
LEVEL:6
|
|
BALLOON:2,2,2,2,2,2,2,56,2,2,2,2,2,2,2,64
|
|
SCOREINIT:
|
|
SCOREDIFF:
|
|
NOTESDESIGNER1:Colin
|
|
|
|
#START
|
|
1010,
|
|
1,
|
|
1010,
|
|
1,
|
|
#GOGOSTART
|
|
1210,
|
|
10111020,
|
|
1210,
|
|
10111020,
|
|
10202022,
|
|
1212,
|
|
10002022,
|
|
1212,
|
|
#GOGOEND
|
|
20002220,
|
|
20002220,
|
|
20002220,
|
|
2220,
|
|
20222020,
|
|
20002022,
|
|
20202022,
|
|
2220,
|
|
3003003000700080,
|
|
3003003000700080,
|
|
3003003000700080,
|
|
3003003000700080,
|
|
4004004000700080,
|
|
4004004000700080,
|
|
4004004000700080,
|
|
1011,
|
|
#MEASURE 7/4
|
|
#BPMCHANGE 210
|
|
1000000,
|
|
1000000,
|
|
10001002000000,
|
|
10001002000000,
|
|
10001002001010,
|
|
1010102,
|
|
2020202,
|
|
10002000101011,
|
|
#BPMCHANGE 220
|
|
10001002000010,
|
|
1010102,
|
|
#BPMCHANGE 230
|
|
2020202,
|
|
#BPMCHANGE 240
|
|
10002000101011,
|
|
#BPMCHANGE 250
|
|
7000000,
|
|
,
|
|
#MEASURE 1/4
|
|
#BPMCHANGE 780
|
|
#SCROLL 2.4
|
|
8,
|
|
#SCROLL 2.3
|
|
0,
|
|
#SCROLL 2.2
|
|
0,
|
|
#SCROLL 2.2
|
|
0,
|
|
#SCROLL 2.1
|
|
0,
|
|
#SCROLL 2
|
|
0,
|
|
#SCROLL 1.9
|
|
0,
|
|
#SCROLL 1.8
|
|
0,
|
|
#SCROLL 1.7
|
|
0,
|
|
#SCROLL 1.6
|
|
0,
|
|
#SCROLL 1.5
|
|
0,
|
|
#SCROLL 1.4
|
|
0,
|
|
#SCROLL 1.3
|
|
0,
|
|
#SCROLL 1.2
|
|
0,
|
|
#SCROLL 1.1
|
|
0,
|
|
#SCROLL 1
|
|
0,
|
|
#SCROLL 0.9
|
|
0,
|
|
#SCROLL 0.8
|
|
0,
|
|
#SCROLL 0.7
|
|
0,
|
|
#SCROLL 0.6
|
|
0,
|
|
#SCROLL 0.5
|
|
0,
|
|
#SCROLL 0.4
|
|
0,
|
|
#SCROLL 0.3
|
|
0,
|
|
#SCROLL 0.2
|
|
0,
|
|
#MEASURE 4/4
|
|
#BPMCHANGE 137
|
|
#SCROLL 1
|
|
2,
|
|
1,
|
|
2,
|
|
1,
|
|
10101011,
|
|
1110,
|
|
20201011,
|
|
1,
|
|
#GOGOSTART
|
|
30101011,
|
|
20202022,
|
|
10101022,
|
|
20202022,
|
|
10101011,
|
|
20202011,
|
|
10101022,
|
|
2220,
|
|
4004004000700080,
|
|
4004004000700080,
|
|
4004004000700080,
|
|
3003003000700080,
|
|
4004004000700080,
|
|
3003003000700080,
|
|
4004004000700080,
|
|
3003003000303030,
|
|
3212,
|
|
10111020,
|
|
10201011,
|
|
10101022,
|
|
20201022,
|
|
10201022,
|
|
1210,
|
|
100010001010101
|
|
#GOGOEND
|
|
0,
|
|
#MEASURE 3/4
|
|
#BPMCHANGE 200
|
|
100,
|
|
#MEASURE 7/4
|
|
#BPMCHANGE 240
|
|
20000020202022,
|
|
20000020202022,
|
|
#BPMCHANGE 250
|
|
10000010101011,
|
|
10000010101011,
|
|
#BPMCHANGE 270
|
|
2002222,
|
|
#BPMCHANGE 285
|
|
2002222,
|
|
#BPMCHANGE 300
|
|
1001111,
|
|
#BPMCHANGE 315
|
|
1001111,
|
|
#MEASURE 4/4
|
|
#BPMCHANGE 33.9
|
|
#SCROLL 10
|
|
70000008,
|
|
#END
|
|
|
|
COURSE:Hard
|
|
LEVEL:8
|
|
BALLOON:4,4,4,4,4,4,4,4,16,32,56,16,64
|
|
SCOREINIT:
|
|
SCOREDIFF:
|
|
NOTESDESIGNER2:Colin
|
|
|
|
#START
|
|
1000101020222000,
|
|
10221120,
|
|
1000101020222000,
|
|
10221120,
|
|
#GOGOSTART
|
|
1020102220222000,
|
|
1010200022222000,
|
|
1020102220222000,
|
|
1010200022222000,
|
|
1020102220222000,
|
|
1010200022222000,
|
|
1020102220222000,
|
|
1010200022222000,
|
|
#GOGOEND
|
|
1020220020201000,
|
|
70870822,
|
|
1020220020201000,
|
|
7000807000802220,
|
|
1020220020201000,
|
|
70870822,
|
|
1020220020201000,
|
|
70870822,
|
|
4004004040404000,
|
|
4004004040404000,
|
|
4004004040404000,
|
|
7,
|
|
8003003030303000,
|
|
3003003030303000,
|
|
7,
|
|
,
|
|
#MEASURE 7/4
|
|
#BPMCHANGE 210
|
|
8000000,
|
|
,
|
|
1010202220202000000020102000,
|
|
1010202220202000000020102000,
|
|
12120122120211,
|
|
22120122120211,
|
|
22120122120211,
|
|
22120122120211,
|
|
#BPMCHANGE 220
|
|
22120122120211,
|
|
22120122120211,
|
|
#BPMCHANGE 230
|
|
22120122120211,
|
|
#BPMCHANGE 240
|
|
22120122120211,
|
|
#BPMCHANGE 250
|
|
7000000,
|
|
,
|
|
#MEASURE 1/4
|
|
#BPMCHANGE 780
|
|
#SCROLL 2.4
|
|
8,
|
|
#SCROLL 2.3
|
|
0,
|
|
#SCROLL 2.2
|
|
0,
|
|
#SCROLL 2.2
|
|
0,
|
|
#SCROLL 2.1
|
|
0,
|
|
#SCROLL 2
|
|
0,
|
|
#SCROLL 1.9
|
|
0,
|
|
#SCROLL 1.8
|
|
0,
|
|
#SCROLL 1.7
|
|
0,
|
|
#SCROLL 1.6
|
|
0,
|
|
#SCROLL 1.5
|
|
0,
|
|
#SCROLL 1.4
|
|
0,
|
|
#SCROLL 1.3
|
|
0,
|
|
#SCROLL 1.2
|
|
0,
|
|
#SCROLL 1.1
|
|
0,
|
|
#SCROLL 1
|
|
0,
|
|
#SCROLL 0.9
|
|
0,
|
|
#SCROLL 0.8
|
|
0,
|
|
#SCROLL 0.7
|
|
0,
|
|
#SCROLL 0.6
|
|
0,
|
|
#SCROLL 0.5
|
|
0,
|
|
#SCROLL 0.4
|
|
0,
|
|
#SCROLL 0.3
|
|
0,
|
|
#SCROLL 0.2
|
|
0,
|
|
#MEASURE 4/4
|
|
#BPMCHANGE 137
|
|
#SCROLL 1
|
|
1,
|
|
1,
|
|
1,
|
|
1,
|
|
4004004040404000,
|
|
4004004040404000,
|
|
4004004040404000,
|
|
,
|
|
#GOGOSTART
|
|
1022002020010020,
|
|
1110020010010020,
|
|
0011002010222020,
|
|
2001002022201110,
|
|
1002001020010010,
|
|
2220002010010020,
|
|
1011002010220020,
|
|
7,
|
|
8004004040404000,
|
|
4004004040404000,
|
|
4004004040404000,
|
|
4004004040404000,
|
|
4004004040404000,
|
|
4004004040404000,
|
|
4004004040404000,
|
|
4004004040404000,
|
|
2022001002001011,
|
|
1000002222202220,
|
|
1000102220222022,
|
|
1002022001111100,
|
|
1002022011102020,
|
|
1002022011102020,
|
|
1002022011102020,
|
|
100202201110202
|
|
#GOGOEND
|
|
0,
|
|
#MEASURE 3/4
|
|
#BPMCHANGE 200
|
|
000,
|
|
#MEASURE 7/4
|
|
#BPMCHANGE 240
|
|
12120212021210,
|
|
12120212021210,
|
|
#BPMCHANGE 250
|
|
12120212021210,
|
|
12120212021210,
|
|
#BPMCHANGE 270
|
|
12120212021210,
|
|
#BPMCHANGE 285
|
|
12120212021210,
|
|
#BPMCHANGE 300
|
|
12120212021210,
|
|
#BPMCHANGE 315
|
|
12120212021210,
|
|
#MEASURE 4/4
|
|
#BPMCHANGE 33.9
|
|
#SCROLL 10
|
|
70000008,
|
|
#END
|
|
|
|
COURSE:Oni
|
|
LEVEL:10
|
|
BALLOON:64
|
|
SCOREINIT:
|
|
SCOREDIFF:
|
|
NOTESDESIGNER3:Colin
|
|
|
|
#START
|
|
100100200200100100200100200000201010200000201010,
|
|
200000100000200000200000100000200000100000100000100100200200100000100000200000100000200020002000,
|
|
100100200200100100200100200000201010200000201010,
|
|
200000100000200000200000100000200000100000100000100100200200100000100000200000100000200020002000,
|
|
#GOGOSTART
|
|
100000200100100100201010200000201010200000201010,
|
|
200000200000100000200000100000200000100000100000200000200200100000200000100000100000200020002000,
|
|
100000200100100100201010200000201010200000201010,
|
|
200000200000100000200000100000200000100000100000200000200200100000200000100100100000200010001000,
|
|
200000200100100100201010200000201010200000201010,
|
|
200000200000100000200000100000200000100000100000200000200200100000200000100000100000200020002000,
|
|
100000200100100100201010200000201010200000201010,
|
|
200200100200100200100100200200200200201010200200,
|
|
#GOGOEND
|
|
1120120121122122,
|
|
1221012221112222,
|
|
1120120121122122,
|
|
1021012221212212,
|
|
1120120121122122,
|
|
1221012221112222,
|
|
1120120121122122,
|
|
1021222121212122,
|
|
2012012022112222,
|
|
2112012022222222,
|
|
2012021022222222,
|
|
11111111222222221111111122222222,
|
|
1012012022112222,
|
|
2012012022222222,
|
|
1111111122222222,
|
|
1111111122222222,
|
|
#MEASURE 7/4
|
|
#BPMCHANGE 210
|
|
2020102012102020102022101020,
|
|
2020102012102020102022102222,
|
|
1010202122101020212210201210,
|
|
1010202122101020212211201212,
|
|
1020112012102020112212102020,
|
|
1020112012102020112212102222,
|
|
1020112012102020112212102020,
|
|
1020112012102020112212102222,
|
|
#BPMCHANGE 220
|
|
1020112022112020102011101020,
|
|
1020112022112020102011101222,
|
|
#BPMCHANGE 230
|
|
1020102012102020112012101020,
|
|
#BPMCHANGE 240
|
|
2020112012102020112012101020,
|
|
#BPMCHANGE 250
|
|
2222222222222222222222222222,
|
|
1111111111111111111111111111,
|
|
#MEASURE 1/4
|
|
#BPMCHANGE 780
|
|
#SCROLL 2.4
|
|
0,
|
|
#SCROLL 2.3
|
|
0,
|
|
#SCROLL 2.2
|
|
0,
|
|
#SCROLL 2.2
|
|
0,
|
|
#SCROLL 2.1
|
|
0,
|
|
#SCROLL 2
|
|
0,
|
|
#SCROLL 1.9
|
|
0,
|
|
#SCROLL 1.8
|
|
0,
|
|
#SCROLL 1.7
|
|
0,
|
|
#SCROLL 1.6
|
|
0,
|
|
#SCROLL 1.5
|
|
0,
|
|
#SCROLL 1.4
|
|
0,
|
|
#SCROLL 1.3
|
|
0,
|
|
#SCROLL 1.2
|
|
0,
|
|
#SCROLL 1.1
|
|
0,
|
|
#SCROLL 1
|
|
0,
|
|
#SCROLL 0.9
|
|
0,
|
|
#SCROLL 0.8
|
|
0,
|
|
#SCROLL 0.7
|
|
0,
|
|
#SCROLL 0.6
|
|
0,
|
|
#SCROLL 0.5
|
|
0,
|
|
#SCROLL 0.4
|
|
0,
|
|
#SCROLL 0.3
|
|
0,
|
|
#SCROLL 0.2
|
|
0,
|
|
#MEASURE 4/4
|
|
#BPMCHANGE 137
|
|
#SCROLL 1
|
|
100100200200100100200100200000201010200000201010,
|
|
200000100000200000200000100000200000100000100000100100200200100000100000200000100000200020002000,
|
|
100100200200100100200100200000201010200000201010,
|
|
200000100000200000200000100000200000100000100000100100200200100000100000200000100000200020002000,
|
|
200000100200000100200100200000201010200000100100,
|
|
200000200000100000200000100000200000200000200000100100200200100000100000200000100000200020002000,
|
|
1121112111211121,
|
|
100000000000
|
|
#SCROLL 4
|
|
2
|
|
#SCROLL 3.75
|
|
2
|
|
#SCROLL 3.5
|
|
2
|
|
#SCROLL 3.25
|
|
2
|
|
#SCROLL 3
|
|
2
|
|
#SCROLL 2.75
|
|
2
|
|
#SCROLL 2.5
|
|
2
|
|
#SCROLL 2.25
|
|
2
|
|
#SCROLL 2
|
|
2
|
|
#SCROLL 1.75
|
|
2
|
|
#SCROLL 1.5
|
|
2
|
|
#SCROLL 1.25
|
|
2,
|
|
#GOGOSTART
|
|
#SCROLL 1
|
|
1012021020210210,
|
|
1220210111210120,
|
|
200000200100000100200100200000201010200000201010,
|
|
200100100200000100200200100100200000201010200200,
|
|
1012021020210210,
|
|
1220210111210120,
|
|
200000200100000100200100200000201010200000200000,
|
|
11111111222222221111111122222222,
|
|
1121121121121122,
|
|
2221112221112222,
|
|
1121121121121122,
|
|
2221212221112222,
|
|
1121121121121122,
|
|
2221112221112222,
|
|
1121121121121122,
|
|
2221212221112222,
|
|
1021012012021022,
|
|
100000200100000200101010201010200000200200200000,
|
|
211211211211211211222111,
|
|
200000200100000200100200201010201010200100200200,
|
|
200200100200101010200200100200100100101010200100,
|
|
200200100200101010200200100200100100101010200100,
|
|
2222222211111111,
|
|
222222221111111
|
|
#GOGOEND
|
|
1,
|
|
#MEASURE 3/4
|
|
#BPMCHANGE 200
|
|
000,
|
|
#MEASURE 7/4
|
|
#BPMCHANGE 240
|
|
1020112012102020112210201020,
|
|
1020112012102020112210201222,
|
|
#BPMCHANGE 250
|
|
1020112012102020112210201020,
|
|
1020112012102020112210201222,
|
|
#BPMCHANGE 270
|
|
1020112012102020112210201020,
|
|
#BPMCHANGE 285
|
|
1020112012102020112210201222,
|
|
#BPMCHANGE 300
|
|
1020112012102020112210201020,
|
|
#BPMCHANGE 315
|
|
1020112012102020112210201222,
|
|
#MEASURE 4/4
|
|
#BPMCHANGE 33.9
|
|
#SCROLL 10
|
|
70000008,
|
|
#END
|