Files
Colins_Custom_Charts/05 Game Music/Sage/Sage.tja
T
2025-06-11 19:53:16 -04:00

461 lines
5.8 KiB
Plaintext

TITLE:Sage
SUBTITLE:--Camellia / maimai DELUXE UNiVERSE PLUS
TITLEJA:Sage
SUBTITLEJA:かめりあ 「maimai でらっくす UNiVERSE PLUS」より
PREIMAGE:Sage.png
BGMOVIE:Sage.mp4
WAVE:Sage.ogg
BPM:145
OFFSET:-3.373
DEMOSTART:82.0971
MAKER:Colin
COURSE:Easy
LEVEL:3
SCOREINIT:
SCOREDIFF:
NOTESDESIGNER0:Colin
#START
1010,
1110,
2020,
2220,
1010,
1110,
2020,
2220,
4000040400400000,
0000000004000400,
4000040400400000,
0000000004004000,
4000040400400000,
0000000004000400,
4000040400400060,
,
,
,
8,
#GOGOSTART
1110,
1010,
1110,
2220,
1110,
2020,
1110,
2220,
1010,
1110,
2020,
2220,
1010,
1110,
2000200
#GOGOEND
5,
,
0080,
2,
,
2,
0000000000300300,
30000001,
00000001,
,
,
2020,
20000005,
,
0080,
#GOGOSTART
1010,
1110,
2020,
2220,
1010,
1110,
#GOGOEND
2220,
1010,
#GOGOSTART
2020,
2220,
1010,
1110,
2020,
2220,
#GOGOEND
1110,
1110,
2
#GOGOSTART
220,
1010100
#GOGOEND
0,
2020,
2,
2020,
2,
#GOGOSTART
1110,
1110,
2220,
2220,
1110,
2220,
1010100
#GOGOEND
5,
,
8,
#GOGOSTART
1010,
1,
2220,
1010100
#GOGOEND
5,
,
000000000000000000000008,
#END
COURSE:Normal
LEVEL:5
SCOREINIT:
SCOREDIFF:
NOTESDESIGNER1:Colin
#START
1010,
10111000,
2020,
20222000,
1010,
10111000,
2020,
20222000,
4000040400400000,
0000000004000400,
4000040400400000,
0000000004004000,
4000040400400000,
0000000004000400,
4000040400400060,
,
,
,
8,
#GOGOSTART
10111010,
1010,
10111000,
20222020,
1110,
20222020,
1110,
20202220,
1010,
10111010,
2020,
2220,
10111000,
1110,
2022202
#GOGOEND
5,
,
0080,
2020,
2,
2020,
2000000000300300,
30001001,
00000001,
0010,
1,
2022,
20002005,
,
0080,
#GOGOSTART
10011001,
1110,
20022022,
2220,
10111010,
1110,
#GOGOEND
20222020,
1011,
#GOGOSTART
20002022,
2220,
10111010,
1110,
20222020,
2220,
#GOGOEND
10111010,
1110,
2
#GOGOSTART
220,
1010100
#GOGOEND
0,
2220,
2220,
2220,
2,
#GOGOSTART
10111010,
1110,
20222020,
2220,
10111010,
2220,
1010101
#GOGOEND
5,
,
8,
#GOGOSTART
1010,
1,
2220,
1010100
#GOGOEND
5,
,
000000000000000000000008,
#END
COURSE:Hard
LEVEL:6
BALLOON:25
SCOREINIT:
SCOREDIFF:
NOTESDESIGNER2:Colin
#START
01220000,
01220100,
01220000,
01220100,
01220000,
01220100,
01220000,
01220000,
4000040400400000,
0000000004000400,
4000040400400000,
0000000004004000,
4000040400400000,
0000000004000400,
4000040400400060,
,
,
,
8,
#GOGOSTART
3000220200002000,
1110100010201020,
1000220010201020,
00120120,
11221120,
1000222010002000,
1000220110201020,
1010200020111020,
1010200200201101,
1020101100201020,
1000220010201100,
1111100202222000,
1010201020202001,
0102010200001020,
10102201101020
#GOGOEND
50,
,
0000000800000000,
01220000,
01220100,
01220000,
0010202000300300,
31220003,
01220103,
01220000,
01220102,
21202120,
21202127,
,
0000000800000020,
#GOGOSTART
2011020200020002,
0010100020010220,
2011020200020002,
0010100020011010,
2011020200020002,
0010100020010220,
#GOGOEND
2010201101020204,
0222022201102020,
#GOGOSTART
1011020200020002,
0010100020010220,
2011020200020002,
01212210,
2011010202200220,
1010200201102200,
#GOGOEND
2010200102020202,
0102010200200000,
1010
#GOGOSTART
202200102000,
10102011001022
#GOGOEND
20,
0002020202220222,
0020201100000000,
2222,
2000200004000400,
#GOGOSTART
1010220200102020,
1000201110102220,
1010220200102020,
1000201110102220,
1010220200102022,
0101022201100100,
10102002001020
#GOGOEND
50,
,
8,
#GOGOSTART
4000040440400004,
0400400004040040,
4000040400400004,
04004000000000
#GOGOEND
40,
05000000,
000000000008,
#END
COURSE:Oni
LEVEL:10
BALLOON:44
SCOREINIT:
SCOREDIFF:
NOTESDESIGNER3:Colin
#START
1212,
1212,
1212,
1212,
1212,
1212,
1222222212222222,
1222201020122000,
4000040400400121,
1212120104000400,
4000040400400121,
000020202010100100100200000400000000400000000000,
4000040400400101,
0211211104000400,
4000040400400010,
2011201020112011,
2211221122112211,
2010201022112211,
200020002000200020002000200020002000200020002000000000200200100000200000100000100000100000100000,
#GOGOSTART
2010120201101201,
100100200100200000101010102020202020102020202020,
1011210120102020,
1120120212012020,
1020220212102020,
1111222012012222,
1022120211202020,
100000200000100000100100200000000000100000000000200000100000200020002000100010001000100000000000,
1020120211202122,
1211211202201120,
1020210110201120,
200020002000100010001000200000000000100000200000100100200000100000100000200000000000200000000000,
3030212120121122,
0121012120202102,
10102101021120
#GOGOEND
50,
,
00000000800000000022201020002000,
100000000000000000202020200000000200000000200000,
000000202020200200200000000000000000000000000000,
000000000000000000202020200000000200000000200000,
000000200200100200100000101010200000100200000100,
200100200000222111200200,
0022102112012210,
2112012012012121,
2011212012112121,
2111211121112111,
200100100100200100100100200100100100200100202020,
222222222222222222222222,
200020002000200020002000200020002000200020002000000000200200100000100000200000000000200000000000,
#GOGOSTART
1021010201120112,
0211212120210120,
2021210201120112,
0121212120212020,
2021010201120112,
00102010101020202022201000102000,
#GOGOEND
1010201101020202,
000100100200000100100200200020201010200000200000,
#GOGOSTART
1021010201120112,
0211212120210120,
2021210201120112,
0121212120212020,
2021010201120112,
00102010101020202022201000102000,
#GOGOEND
100000101010200000100100000100000200000200000200,
0112011201120122,
1010
#GOGOSTART
#SCROLL 2
4
#SCROLL 1
02212210102,
12212211011211
#GOGOEND
20,
0022020201120112,
0221122100012120,
2010201020102011,
2010200004000400,
#GOGOSTART
4010210201202122,
102020100010102020111222,
100000200000100200000200100100200000101010101010,
202020202020200020002000100100000100202020202020,
1010210110112221,
000100000200000200100200000020101010200100000200,
10102112012122
#GOGOEND
22,
1,
100000202020102020201010201010200100200000100000,
#GOGOSTART
100200200200000200100200202020200200000200000200,
100100100200100000202020100200100000100200100200,
100000202020100200100200100200100000200200000100,
201020102010201020102010200200200200200200
#GOGOEND
200000,
07000000,
000000000000000000000008,
#END