generated from DragonRatTiger/Custom-Charts
324 lines
2.9 KiB
Plaintext
324 lines
2.9 KiB
Plaintext
TITLE:ambivalent world
|
||
TITLEJA:ambivalent world
|
||
SUBTITLE:--Suruga Kanbaru (CV:Miyuki Sawashiro) / Bakemonogatari
|
||
SUBTITLEJA:神原駿河 (CV:沢城みゆき)「化物語」より
|
||
PREIMAGE:Ambivalent World.jpg
|
||
BPM:174
|
||
WAVE:Ambivalent World.ogg
|
||
OFFSET:-0.393
|
||
DEMOSTART:48.668
|
||
MAKER:Colin
|
||
|
||
COURSE:Oni
|
||
LEVEL:6
|
||
BALLOON:
|
||
SCOREINIT:
|
||
SCOREDIFF:
|
||
NOTESDESIGNER3:Colin
|
||
|
||
|
||
#START
|
||
10211120,
|
||
10211120,
|
||
10211120,
|
||
10201220,
|
||
10211120,
|
||
10211120,
|
||
1000201010102210,
|
||
01010120,
|
||
10201120,
|
||
10201120,
|
||
10201120,
|
||
10201120,
|
||
10201120,
|
||
10201120,
|
||
10201121,
|
||
0020102000102022,
|
||
10201120,
|
||
10201120,
|
||
10201120,
|
||
10201120,
|
||
10201120,
|
||
10201120,
|
||
10201120,
|
||
1000202010222222,
|
||
10101212,
|
||
10201121,
|
||
2000200020002022,
|
||
1010201020111111,
|
||
1022102011101110,
|
||
1000201110102000,
|
||
10210120,
|
||
10210120,
|
||
11111211,
|
||
50000008,
|
||
2222102211112000,
|
||
#GOGOSTART
|
||
10210120,
|
||
10211120,
|
||
10212120,
|
||
2010101020112000,
|
||
2020221020001020,
|
||
1010201110102010,
|
||
01012121,
|
||
0010101110102222,
|
||
10210120,
|
||
10211120,
|
||
10212120,
|
||
2010101020112000,
|
||
2020221020001020,
|
||
1010201110102010,
|
||
01012121,
|
||
0010101110102222,
|
||
5,
|
||
0000800000112010,
|
||
0011201010102050,
|
||
00812112,
|
||
10010000,
|
||
12212212,
|
||
1110101110101110,
|
||
#GOGOEND
|
||
10000120,
|
||
10211120,
|
||
1000201022222222,
|
||
10210000,
|
||
0000000000000211,
|
||
1,
|
||
#END
|
||
|
||
|
||
COURSE:Hard
|
||
LEVEL:5
|
||
BALLOON:
|
||
SCOREINIT:
|
||
SCOREDIFF:
|
||
NOTESDESIGNER2:Colin
|
||
|
||
|
||
#START
|
||
10201120,
|
||
10202210,
|
||
10201120,
|
||
10202210,
|
||
10201120,
|
||
10202210,
|
||
10201120,
|
||
00202210,
|
||
1000200011101010,
|
||
0000101110101000,
|
||
2000111020111010,
|
||
2011101020001010,
|
||
20102111,
|
||
2000001110102000,
|
||
1000111000201010,
|
||
0020102000201011,
|
||
11201111,
|
||
01010101,
|
||
00001211,
|
||
01110111,
|
||
10201111,
|
||
01210121,
|
||
10110001,
|
||
01110110,
|
||
3360,
|
||
0080002000222020,
|
||
20404001,
|
||
11010508,
|
||
3360,
|
||
0080002000222020,
|
||
20440000,
|
||
10110000,
|
||
10210210,
|
||
5,
|
||
8,
|
||
10050810,
|
||
1000005000801110,
|
||
#GOGOSTART
|
||
10121120,
|
||
2022202000201000,
|
||
50000008,
|
||
00101011,
|
||
05008001,
|
||
0011101000101000,
|
||
10050810,
|
||
1000005000801110,
|
||
10121120,
|
||
2022202000201000,
|
||
50000008,
|
||
00101011,
|
||
05008001,
|
||
0011101000101010,
|
||
5,
|
||
0000800000202220,
|
||
0020222000202020,
|
||
02020211,
|
||
5008,
|
||
50000008,
|
||
50850850,
|
||
8,
|
||
#GOGOEND
|
||
10201120,
|
||
10202210,
|
||
10210000,
|
||
0,
|
||
1,
|
||
#END
|
||
|
||
|
||
COURSE:Normal
|
||
LEVEL:4
|
||
BALLOON:
|
||
SCOREINIT:
|
||
SCOREDIFF:
|
||
NOTESDESIGNER1:Colin
|
||
#START
|
||
1202,
|
||
1202,
|
||
1202,
|
||
1202,
|
||
1202,
|
||
1202,
|
||
1202,
|
||
1,
|
||
1,
|
||
1,
|
||
1,
|
||
1,
|
||
1,
|
||
1,
|
||
10000001,
|
||
01010101,
|
||
1,
|
||
1,
|
||
1,
|
||
1,
|
||
1,
|
||
1,
|
||
1,
|
||
1,
|
||
20205008,
|
||
0,
|
||
2220,
|
||
20050008,
|
||
10105008,
|
||
0,
|
||
2,
|
||
2,
|
||
2222,
|
||
5,
|
||
8,
|
||
#GOGOSTART
|
||
10110010,
|
||
10110020,
|
||
20220000,
|
||
11,
|
||
50820001,
|
||
00000001,
|
||
00000001,
|
||
00110110,
|
||
10110010,
|
||
10110020,
|
||
20220000,
|
||
11,
|
||
50820001,
|
||
00000001,
|
||
00000001,
|
||
00110110,
|
||
5,
|
||
00080002,
|
||
00020002,
|
||
0,
|
||
10010000,
|
||
10010010,
|
||
5,
|
||
8,
|
||
#GOGOEND
|
||
1202,
|
||
1202,
|
||
10220000,
|
||
0,
|
||
2,
|
||
#END
|
||
|
||
COURSE:Easy
|
||
LEVEL:2
|
||
BALLOON:
|
||
SCOREINIT:
|
||
SCOREDIFF:
|
||
NOTESDESIGNER0:Colin
|
||
#START
|
||
1,
|
||
1,
|
||
1,
|
||
1,
|
||
1,
|
||
1,
|
||
1,
|
||
1,
|
||
02,
|
||
0,
|
||
2,
|
||
2,
|
||
2,
|
||
2,
|
||
20000005,
|
||
00000008,
|
||
02,
|
||
22,
|
||
22,
|
||
22,
|
||
22,
|
||
22,
|
||
22,
|
||
22,
|
||
1,
|
||
1,
|
||
1,
|
||
1,
|
||
1,
|
||
1,
|
||
10010000,
|
||
10010000,
|
||
5,
|
||
0,
|
||
8,
|
||
#GOGOSTART
|
||
10050080,
|
||
10050080,
|
||
2,
|
||
2,
|
||
5008,
|
||
1,
|
||
01000000,
|
||
0,
|
||
10050080,
|
||
10050080,
|
||
2,
|
||
2,
|
||
5008,
|
||
1,
|
||
01000000,
|
||
0,
|
||
5,
|
||
00080020,
|
||
0205,
|
||
0,
|
||
0,
|
||
00000008,
|
||
#GOGOEND
|
||
20020020,
|
||
0,
|
||
1,
|
||
1,
|
||
1,
|
||
0,
|
||
2,
|
||
#END
|
||
|
||
|
||
|
||
|
||
|
||
|
||
|