Files
Colins_Custom_Charts/02 Anime/Deep down/Deep down.tja
T
2025-06-11 19:53:16 -04:00

324 lines
2.8 KiB
Plaintext

TITLE:Deep down
TITLEJA:Deep down
SUBTITLE:--Aimer / Chainsaw Man
PREIMAGE:Deep down.jpg
SUBTITLEJA:Aimer「チェンソーマン」より
BPM:158
OFFSET:-0.212
DEMOSTART:52.427
WAVE:Deep down.ogg
MAKER:Colin
COURSE:Oni
LEVEL:6
BALLOON:10,12,12,12,50
SCOREINIT:
SCOREDIFF:
NOTESDESIGNER4:Colin
#START
#MEASURE 2/4
#BARLINEOFF
,
#MEASURE 4/4
#BARLINEON
11101100,
15000800,
12001200,
12000010,
10015000,
81115008,
50000081,
0010000001000000,
15000008,
1001005000000080,
1005000000008010,
15008011,
1010100000001001,
0010010010100010,
15000080,
1001000000101010,
1111200010000000,
11111111,
11111000,
11111111,
11101000,
11101101,
11500000,
00000008,
00001110,
11010101,
0010000001010100,
0101000100010001,
0005000000000000,
00000008,
01111110,
#MEASURE 5/4
1050000008,
#MEASURE 8/4
1000000000000111,
#MEASURE 4/4
#GOGOSTART
1000001120102000,
1010101020102001,
11112011,
21012111,
2000001120102000,
11112111,
1010101120002020,
1001001040040020,
1000101120001022,
1010111120020010,
11112101,
2010010040040020,
1020101120101020,
1020121020005080,
1002001020020010,
12112111,
#GOGOEND
70008007,
00008007,
00000800,
7008,
07000000,
,
,
8,
#END
COURSE:Hard
LEVEL:3
BALLOON:8,10,10,10,35
SCOREINIT:
SCOREDIFF:
NOTESDESIGNER2:Colin
#START
#MEASURE 2/4
#BARLINEOFF
,
#MEASURE 4/4
#BARLINEON
11101100,
15000800,
11001100,
11000010,
5,
81115008,
50000081,
0010000001000000,
15000008,
50000008,
1005000000008000,
15008011,
1010100000001001,
0010010010100010,
15000000,
0008000000101010,
11101000,
11101110,
11111000,
11101110,
11101000,
11101101,
11500000,
00000008,
0011,
15000000,
0080000001010100,
0101000100010005,
,
00000008,
01010110,
#MEASURE 5/4
1050000008,
#MEASURE 8/4
10,
#MEASURE 4/4
#GOGOSTART
10012020,
11012020,
11012010,
21012101,
20012020,
11012010,
11012020,
1000001040040020,
10112012,
1010001020020010,
10112001,
2000010040040020,
10112012,
10112050,
,
00000008,
#GOGOEND
70008007,
00008007,
00000800,
7008,
07000000,
,
,
8,
#END
COURSE:Normal
LEVEL:1
BALLOON:
SCOREINIT:
SCOREDIFF:
NOTESDESIGNER1:Colin
#START
#MEASURE 2/4
#BARLINEOFF
,
#MEASURE 4/4
#BARLINEON
0100,
0100,
0101,
0100,
5,
8500,
,
0008,
0100,
0100,
0100,
0100,
0100,
0101,
0500,
0080,
0110,
0111,
0110,
0101,
1100,
1101,
5,
0008,
0010,
1010,
1010,
1010,
5,
,
8,
#MEASURE 5/4
0,
#MEASURE 8/4
00,
#MEASURE 4/4
#GOGOSTART
1110,
1110,
1210,
1210,
1110,
2220,
1110,
1110,
5,
0008,
5,
,
8010,
1010,
5,
8,
#GOGOEND
1,
1,
1,
1,
5,
,
,
8,
#END
COURSE:Easy
LEVEL:1
BALLOON:
SCOREINIT:
SCOREDIFF:
NOTESDESIGNER0:Colin
#START
#MEASURE 2/4
#BARLINEOFF
,
#MEASURE 4/4
#BARLINEON
1,
,
1,
0005,
0008,
5,
,
0080,
1,
,
1,
,
1,
1,
5,
0800,
1,
1010,
1,
1010,
1,
1015,
,
0080,
0100,
0100,
0100,
0105,
,
0008,
,
#MEASURE 5/4
0,
#MEASURE 8/4
00000001,
#MEASURE 4/4
#GOGOSTART
0101,
0001,
0101,
0001,
0102,
0001,
0101,
0005,
,
0085,
,
0008,
0101,
0105,
0008,
0001,
#GOGOEND
0001,
0001,
0001,
0005,
,
,
0008,
,
#END