Files
Colins_Custom_Charts/02 Anime/Stories/Stories.tja
T
2025-06-11 19:53:16 -04:00

354 lines
2.6 KiB
Plaintext

TITLE:Stories
SUBTITLE:--Snow Man / Black Clover
BPM:177
WAVE:Stories.ogg
OFFSET:-0.845
DEMOSTART:63.895
MAKER:Colin
COURSE:Oni
LEVEL:8
BALLOON:
SCOREINIT:
SCOREDIFF:
NOTESDESIGNER3:Colin
#START
00002101,
0010201210102010,
0010201210102010,
0010202010102012,
1010202210112210,
0010201210102010,
0010201210102010,
0010201210102012,
10102010202222
#GOGOSTART
10,
0010201210102010,
0010201210102010,
0010201210102012,
1010202210112210,
0010201210102010,
00102012101020
#GOGOEND
30,
0020,
10002001,
12112011,
10122120,
11220012,
10122121,
11122011,
20122111,
11112011,
11112121,
11112211,
12112020,
11112011,
22112112,
11112011,
21112112,
11112111,
21112122,
11112011,
11112100,
10111210,
1020101210102020,
12121212,
12121210,
12121212,
1000101210112000,
10121210,
11201212,
10012211,
12112110,
4010101120102010,
2120110
#GOGOSTART
3,
0030401210102030,
03401121,
01211121,
2010201210112210,
0010201210102010,
0010201210102010,
0010201210102012,
1010201020222210,
03402121,
03402121,
0010201210102010,
0010201120102010,
01212121,
00102010222222
#GOGOEND
10,
00202121,
21212121,
21212121,
21211111,
#END
COURSE:Hard
LEVEL:4
BALLOON:
SCOREINIT:
SCOREDIFF:
NOTESDESIGNER2:Colin
#START
00002101,
0010200011102010,
01201121,
0010200011102010,
01201121,
0010200011102010,
01201121,
0010200011102010,
0120112
#GOGOSTART
6,
,
,
,
0000800022200010,
01201121,
0120112
#GOGOEND
5,
,
8,
,
,
2,
2,
2,
2,
1121,
1222,
1,
2,
2,
1,
1120,
1110,
11111011,
11101010,
1001,
10110100,
10110110,
21002210,
10220220,
22022220,
01222222,
02020200,
10210210,
00002222,
20000002,
20220205,
,
0008000
#GOGOSTART
3,
03403303,
03403306,
,
,
00850000,
00008001,
00101011,
01011003,
03403303,
03403360,
,
,
0860,
0000000
#GOGOEND
0,
,
,
,
,
8,
#END
COURSE:Normal
LEVEL:3
BALLOON:
SCOREINIT:
SCOREDIFF:
NOTESDESIGNER1:Colin
#START
#BARLINEOFF
,
#BARLINEON
1110,
1110,
1110,
1110,
1110,
1110,
1110,
1010100
#GOGOSTART
0,
5,
,
,
0800,
1110,
1010100
#GOGOEND
0,
5,
,
,
,
8,
2,
2,
2,
5080,
5800,
5008,
,
2,
2,
2,
2,
5,
,
0080,
2020,
1110,
1110,
1110,
1110,
2020,
2020,
5,
8,
1010,
1,
5,
0080000
#GOGOSTART
0,
1010,
1011,
1010,
1020,
2220,
2220,
1110,
1110,
1010,
1016,
,
,
0860,
0000000
#GOGOEND
0,
,
,
,
,
8,
#END
COURSE:Easy
LEVEL:2
BALLOON:
SCOREINIT:
SCOREDIFF:
NOTESDESIGNER0:Colin
#START
#BARLINEOFF
,
#BARLINEON
1010,
1010,
1010,
1010,
1010,
1010,
1010,
1000100
#GOGOSTART
0,
5,
,
,
0800,
1010,
1000100
#GOGOEND
0,
5,
,
,
,
8,
2,
,
2,
5080,
5800,
5008,
,
2,
,
2,
,
5,
,
0080,
2020,
1010,
1010,
1010,
1010,
2,
2,
5,
8,
1,
1,
5,
0080000
#GOGOSTART
0,
1010,
1,
1010,
1,
2020,
2,
1010,
1,
1010,
1006,
,
,
0860,
0000000
#GOGOEND
0,
,
,
,
,
8,
#END