Files
Colins_Custom_Charts/02 Anime/Storyteller/Storyteller.tja
T
2025-06-11 19:53:16 -04:00

391 lines
3.3 KiB
Plaintext

TITLE:Storyteller
SUBTITLE:--TRUE / That Time I Got Reincarnated as a Slime
BPM:192
WAVE:Storyteller.ogg
OFFSET:-0.712
DEMOSTART:44.774
MAKER:Colin
COURSE:Oni
LEVEL:6
BALLOON:
SCOREINIT:
SCOREDIFF:
NOTESDESIGNER3:Colin
#START
#GOGOSTART
10210121,
01212120,
10210121,
01202120,
10210121,
0010201000101111,
20212121,
01210121,
11121121,
0010201020222222,
#GOGOEND
1111,
1111,
1111,
1111,
1111,
1111,
12111122,
1011112000201020,
01201121,
01210122,
11211121,
01210121,
10201120,
10210120,
11212121,
0010200010102022,
10210121,
01211120,
10210121,
01201120,
11210121,
0010200011112010,
11211211,
11121120,
11212212,
21220000,
#GOGOSTART
10201121,
11201120,
10201121,
0010201000102022,
10211120,
1010201020102022,
10201121,
0010201020101111,
21212121,
01201120,
11201121,
0010201010102222,
33340344,
4040001020112020,
11111121,
20000000000010000000000020000000000020000000000020000000000020000000000020000020000020000020000
#GOGOEND
0,
#GOGOSTART
10201120,
11201122,
11201121,
01210120,
10201120,
10201120,
10201121,
1010201020101111,
20201121,
01201120,
11201121,
01212101,
11201121,
01210120,
11212121,
00101020101120
#GOGOEND
10,
00000011
#GOGOSTART
60000000,
,
0000000
#GOGOEND
8,
#END
COURSE:Hard
LEVEL:4
BALLOON:
SCOREINIT:
SCOREDIFF:
NOTESDESIGNER2:Colin
#START
#GOGOSTART
10210101,
01210120,
10210101,
01202020,
10210101,
01010111,
20212021,
01210120,
10121021,
01202222,
#GOGOEND
1111,
1111,
1111,
1111,
1111,
1111,
12101120,
11120202,
01201021,
01010102,
10210121,
01210120,
1212,
10210120,
11202121,
01201022,
10210121,
01201120,
10210101,
01201120,
10210101,
01201120,
11201210,
11101120,
11202210,
2011100000000000,
#GOGOSTART
10201120,
1212,
10201021,
01010120,
10210120,
10210122,
10201021,
01202111,
20212021,
01201020,
10201021,
01210120,
33340344,
44012120,
11101120,
20000000000010000000000020000000000000000000000020000000000020000000000020000000000020000000000
#GOGOEND
0,
#GOGOSTART
1212,
11201120,
11201021,
01010120,
1212,
1212,
10201121,
01210111,
20201021,
01201020,
10201021,
01012100,
11201021,
01010120,
11202021,
0102112
#GOGOEND
1,
00
#GOGOSTART
60,
,
0000000
#GOGOEND
8,
#END
COURSE:Normal
LEVEL:3
BALLOON:
SCOREINIT:
SCOREDIFF:
NOTESDESIGNER1:Colin
#START
#GOGOSTART
1110,
1110,
1110,
1110,
2220,
2220,
2220,
2220,
1110,
1110,
#GOGOEND
2020,
2,
2020,
2,
2020,
2,
2020,
5,
8110,
1110,
1110,
2020,
2020,
5,
0080,
,
1010,
1,
1010,
1,
2020,
2,
3030,
6,
8,
,
#GOGOSTART
6,
0080,
1110,
1110,
2222,
0500,
,
0811,
0111,
0115,
0800,
,
33330033,
33006000,
,
00000000000000000000000080000000000000000000000000000000000000000000000000000000000000000000000
#GOGOEND
0,
#GOGOSTART
1110,
2220,
1120,
1210,
1111,
0115,
0008,
1,
1110,
1210,
2220,
1110,
2220,
1110,
2220,
1000100
#GOGOEND
0,
10
#GOGOSTART
60,
,
0000000
#GOGOEND
8,
#END
COURSE:Easy
LEVEL:1
BALLOON:
SCOREINIT:
SCOREDIFF:
NOTESDESIGNER0:Colin
#START
#GOGOSTART
1010,
1010,
1010,
1010,
2020,
2020,
2020,
2020,
1010,
1010,
#GOGOEND
2020,
2,
2020,
2,
2020,
2,
2020,
5,
8010,
1010,
1010,
2020,
2020,
5,
0080,
,
1,
1,
1,
1,
2,
2,
3030,
6,
8,
,
#GOGOSTART
6,
0080,
1010,
1010,
2020,
0500,
,
0801,
0101,
0105,
0800,
,
30330030,
33006000,
,
00000000000000000000000080000000000000000000000000000000000000000000000000000000000000000000000
#GOGOEND
0,
#GOGOSTART
1010,
2020,
1020,
1010,
1010,
0105,
0008,
1,
1010,
1010,
2020,
1010,
2020,
1010,
2020,
1000100
#GOGOEND
0,
10
#GOGOSTART
60,
,
0000000
#GOGOEND
8,
#END