generated from DragonRatTiger/Custom-Charts
283 lines
3.1 KiB
Plaintext
283 lines
3.1 KiB
Plaintext
TITLE:decent black
|
||
SUBTITLE:--Ougi Oshino (CV:Kaori Mizuhashi) / Owarimonogatari
|
||
TITLEJA:decent black
|
||
PREIMAGE:decent black.jpg
|
||
SUBTITLEJA:忍野扇 (CV:水橋かおり)「終物語」より
|
||
BPM:140
|
||
WAVE:decent black.ogg
|
||
OFFSET:-0.044
|
||
DEMOSTART:54.901
|
||
MAKER:Colin
|
||
|
||
COURSE:Oni
|
||
LEVEL:8
|
||
BALLOON:
|
||
SCOREINIT:
|
||
SCOREDIFF:
|
||
NOTESDESIGNER3:Colin
|
||
|
||
#START
|
||
1001201210102020,
|
||
1001202210102000,
|
||
1001201210102020,
|
||
1001202210102000,
|
||
1011201120112011,
|
||
2011201121212011,
|
||
22222222,
|
||
200200200200200200200200100010001000200020002000,
|
||
#GOGOSTART
|
||
1000201020221020,
|
||
1021021020121022,
|
||
1022100120121021,
|
||
1012101210112012,
|
||
1000201020221020,
|
||
1021021020121022,
|
||
1021001120121021,
|
||
1012021020000000,
|
||
#GOGOEND
|
||
1000212012102000,
|
||
1021212120001000,
|
||
1000101120201000,
|
||
1002111120201022,
|
||
1000211120121022,
|
||
1022101022201002,
|
||
1011201021112010,
|
||
100010001000100020001000200100100100200000200200,
|
||
1000211120221010,
|
||
1000212120121022,
|
||
1011201020221020,
|
||
100000100100200100200200100010001000100010001000,
|
||
2011201120112011,
|
||
2011201120112011,
|
||
22222222,
|
||
2222222212121210,
|
||
#GOGOSTART
|
||
1000201020221020,
|
||
1021021020121022,
|
||
1022100120121021,
|
||
1012101210112012,
|
||
1000201020221020,
|
||
1021021020121022,
|
||
1021001120121021,
|
||
1012021020000000,
|
||
2111202211212011,
|
||
2002102212112211,
|
||
2021201120122211,
|
||
2011221021112000,
|
||
1011222210112010,
|
||
2001201210112022,
|
||
1001201021112012,
|
||
1001201120112011,
|
||
2011201120112011,
|
||
2020202020222222,
|
||
2,
|
||
#GOGOEND
|
||
#END
|
||
|
||
|
||
COURSE:Hard
|
||
LEVEL:6
|
||
BALLOON:
|
||
SCOREINIT:
|
||
SCOREDIFF:
|
||
NOTESDESIGNER2:Colin
|
||
|
||
|
||
#START
|
||
50811122,
|
||
50000008,
|
||
50811122,
|
||
50000008,
|
||
1111,
|
||
10101110,
|
||
11111111,
|
||
1110111050000080,
|
||
#GOGOSTART
|
||
1000100010111020,
|
||
1001001020222010,
|
||
10112211,
|
||
1001001020222000,
|
||
10201111,
|
||
1001001020222010,
|
||
1001001110010020,
|
||
1001001050000080,
|
||
#GOGOEND
|
||
1000222020202000,
|
||
1110101020002000,
|
||
10112210,
|
||
1111,
|
||
1000222020202000,
|
||
1110101020002000,
|
||
10112210,
|
||
1111,
|
||
1000222020202000,
|
||
01112020,
|
||
10112210,
|
||
1111,
|
||
4444,
|
||
4444,
|
||
44444444,
|
||
44445008,
|
||
#GOGOSTART
|
||
1000100010111020,
|
||
1001001020222010,
|
||
10112211,
|
||
1001001020222000,
|
||
10201111,
|
||
1001001020222010,
|
||
1001001110010020,
|
||
1001001050000080,
|
||
12121212,
|
||
10110120,
|
||
1001002020010020,
|
||
1001002000102010,
|
||
12121212,
|
||
10110120,
|
||
1001002020010020,
|
||
1001002000102010,
|
||
1111,
|
||
11111111,
|
||
1,
|
||
#GOGOEND
|
||
#END
|
||
|
||
COURSE:Normal
|
||
LEVEL:5
|
||
BALLOON:
|
||
SCOREINIT:
|
||
SCOREDIFF:
|
||
NOTESDESIGNER1:Colin
|
||
|
||
|
||
#START
|
||
5,
|
||
00000008,
|
||
5,
|
||
00000008,
|
||
5,
|
||
00000008,
|
||
5,
|
||
00080000,
|
||
#GOGOSTART
|
||
30302222,
|
||
3003006000008000,
|
||
10101110,
|
||
10012020,
|
||
30302222,
|
||
3003006000008000,
|
||
10101110,
|
||
10012021,
|
||
#GOGOEND
|
||
1222,
|
||
2222,
|
||
0222,
|
||
2222,
|
||
0222,
|
||
2222,
|
||
0222,
|
||
2222,
|
||
0222,
|
||
0200,
|
||
0200,
|
||
2222,
|
||
0202,
|
||
0202,
|
||
2222,
|
||
2,
|
||
#GOGOSTART
|
||
30302222,
|
||
3003006000008000,
|
||
10101110,
|
||
10012021,
|
||
30302222,
|
||
3003006000008000,
|
||
10101110,
|
||
10012021,
|
||
10101111,
|
||
1120,
|
||
11,
|
||
1001001000500080,
|
||
10101111,
|
||
1120,
|
||
11,
|
||
1001001000101000,
|
||
1111,
|
||
2222,
|
||
2,
|
||
#GOGOEND
|
||
#END
|
||
|
||
COURSE:Easy
|
||
LEVEL:2
|
||
BALLOON:
|
||
SCOREINIT:
|
||
SCOREDIFF:
|
||
NOTESDESIGNER0:Colin
|
||
|
||
|
||
#START
|
||
5,
|
||
00000008,
|
||
5,
|
||
00000008,
|
||
5,
|
||
00000008,
|
||
5,
|
||
00080000,
|
||
#GOGOSTART
|
||
33,
|
||
20020000,
|
||
33,
|
||
20020200,
|
||
33,
|
||
20020000,
|
||
33,
|
||
20020000,
|
||
#GOGOEND
|
||
0111,
|
||
0,
|
||
0111,
|
||
0002,
|
||
0111,
|
||
0002,
|
||
0111,
|
||
0002,
|
||
0101,
|
||
00000100,
|
||
02,
|
||
11,
|
||
11,
|
||
11,
|
||
5,
|
||
0008,
|
||
#GOGOSTART
|
||
33,
|
||
20020000,
|
||
33,
|
||
20020200,
|
||
33,
|
||
20020000,
|
||
33,
|
||
20020000,
|
||
11,
|
||
1,
|
||
11,
|
||
1,
|
||
11,
|
||
1,
|
||
11,
|
||
11,
|
||
11,
|
||
11,
|
||
2,
|
||
#GOGOEND
|
||
#END
|
||
|
||
|
||
|
||
|
||
|
||
|
||
|
||
|