generated from DragonRatTiger/Custom-Charts
368 lines
4.1 KiB
Plaintext
368 lines
4.1 KiB
Plaintext
TITLE:final phase
|
|
TITLEJA:final phase
|
|
SUBTITLE:--fripSide / A Certain Scientific Railgun T
|
|
PREIMAGE:final phase.jpg
|
|
SUBTITLEJA:fripSide「とある科学の超電磁砲T」より
|
|
BPM:149
|
|
WAVE:final phase.ogg
|
|
OFFSET:-0.504
|
|
DEMOSTART:59.497
|
|
MAKER:Colin
|
|
|
|
COURSE:Edit
|
|
LEVEL:9
|
|
BALLOON:
|
|
SCOREINIT:
|
|
SCOREDIFF:
|
|
NOTESDESIGNER4:Colin
|
|
|
|
|
|
#START
|
|
100000200100000100202020100000200100000100202020,
|
|
1021002210021012,
|
|
100000200100000100202020100000200100000100202020,
|
|
100000200100000000200200100100200200100100202020,
|
|
100000200100000100202020100000200100000100202020,
|
|
1021002210021012,
|
|
100000200100000100202020100000200100000100202020,
|
|
1021002210021012,
|
|
1211221121112022,
|
|
#GOGOSTART
|
|
1021021022112120,
|
|
1021221210212211,
|
|
2022112010221122,
|
|
1021021011221120,
|
|
2021021020212022,
|
|
1021021120221120,
|
|
2022112211221120,
|
|
1122112211221122,
|
|
1021012012210210,
|
|
1211222222222222,
|
|
#GOGOEND
|
|
12121212,
|
|
1021021020201020,
|
|
1222122210102022,
|
|
1021202211112020,
|
|
1001202210210212,
|
|
1021221012112011,
|
|
2212102010221020,
|
|
2011221121021020,
|
|
1021021122112020,
|
|
1021012012121020,
|
|
1021021012121120,
|
|
1021021021112210,
|
|
1021002210121012,
|
|
1021221022121120,
|
|
1021021022112020,
|
|
5000008000001210,
|
|
3003003030030030,
|
|
3003003022222222,
|
|
#GOGOSTART
|
|
1021021022112120,
|
|
1021221210212211,
|
|
2022112010221122,
|
|
1021021011221122,
|
|
1021021022112120,
|
|
1021221210212211,
|
|
2021201120202210,
|
|
1122112211222222,
|
|
1021021022112120,
|
|
1021221210212211,
|
|
2022112010221122,
|
|
1021021011221122,
|
|
2021021020212022,
|
|
1021021120221120,
|
|
2022112211221120,
|
|
1122112211221122,
|
|
1021121010210210,
|
|
#GOGOEND
|
|
122222222222100000000000,
|
|
#END
|
|
|
|
|
|
COURSE:Oni
|
|
LEVEL:7
|
|
BALLOON:15,15,10
|
|
SCOREINIT:
|
|
SCOREDIFF:
|
|
NOTESDESIGNER3:Colin
|
|
|
|
|
|
#START
|
|
1021002210210022,
|
|
1021002010221012,
|
|
1021002210210022,
|
|
1021002010221012,
|
|
1021002210210022,
|
|
1021002010221012,
|
|
1021002210210022,
|
|
1021002010221000,
|
|
7008,
|
|
#GOGOSTART
|
|
3021002000102210,
|
|
1021201000112020,
|
|
1002100020201010,
|
|
2002012011221020,
|
|
2021012010112010,
|
|
2021012010121020,
|
|
5,
|
|
00000008,
|
|
1021001020210200,
|
|
70000008,
|
|
#GOGOEND
|
|
1,
|
|
1,
|
|
1,
|
|
1,
|
|
1001002210020010,
|
|
1002002210001020,
|
|
1020102010221022,
|
|
1000002010221020,
|
|
1021002000221020,
|
|
1021001210112120,
|
|
2001021022112022,
|
|
1001001050000080,
|
|
1001002211221022,
|
|
1021002011221022,
|
|
1002102050000000,
|
|
00080012,
|
|
3003003030030030,
|
|
60008222,
|
|
#GOGOSTART
|
|
1011201122112020,
|
|
5000801011202010,
|
|
1022102010102010,
|
|
2022121022112211,
|
|
1011201122112020,
|
|
5000801011202010,
|
|
1022102010102010,
|
|
2022121022112211,
|
|
1011201122112020,
|
|
5000801011202010,
|
|
1022102010102010,
|
|
2022121022112211,
|
|
1021021020221010,
|
|
2021021020221010,
|
|
11111111,
|
|
50000008,
|
|
3003003030030030,
|
|
#GOGOEND
|
|
78,
|
|
#END
|
|
|
|
COURSE:Hard
|
|
LEVEL:5
|
|
BALLOON:10
|
|
SCOREINIT:
|
|
SCOREDIFF:
|
|
NOTESDESIGNER2:Colin
|
|
|
|
|
|
#START
|
|
1001001110010011,
|
|
1001002010102020,
|
|
1001001110010011,
|
|
1001002010102020,
|
|
1001001110010011,
|
|
1001002010102020,
|
|
1001001110010011,
|
|
1001002010102020,
|
|
7008,
|
|
#GOGOSTART
|
|
3003003000111020,
|
|
3003003000222020,
|
|
1000100010101110,
|
|
3003003000111010,
|
|
4004004000404040,
|
|
4004004000404040,
|
|
1011101010111011,
|
|
1011101111111111,
|
|
#GOGOEND
|
|
1,
|
|
0,
|
|
11,
|
|
1,
|
|
11,
|
|
11,
|
|
11,
|
|
11,
|
|
11,
|
|
5000000080002220,
|
|
1011011010101020,
|
|
1001101110102000,
|
|
1001001000101111,
|
|
1011011010201010,
|
|
1002001010001010,
|
|
1002001010102000,
|
|
1002002010020011,
|
|
1001001010010010,
|
|
3003003030030030,
|
|
68,
|
|
#GOGOSTART
|
|
3003003000111020,
|
|
3003003000222020,
|
|
1000100010101110,
|
|
3003003022022020,
|
|
3003003000111020,
|
|
3003003000222020,
|
|
1000001110101110,
|
|
3003003000222020,
|
|
3003003000111020,
|
|
3003003000222020,
|
|
1000100010101110,
|
|
3003003000222020,
|
|
4004004000404040,
|
|
4004004000404040,
|
|
1011101010111011,
|
|
1011101111111111,
|
|
0,
|
|
#GOGOEND
|
|
03,
|
|
#END
|
|
|
|
|
|
COURSE:Normal
|
|
LEVEL:4
|
|
BALLOON:
|
|
SCOREINIT:
|
|
SCOREDIFF:
|
|
NOTESDESIGNER1:Colin
|
|
|
|
|
|
#START
|
|
3,
|
|
3,
|
|
3,
|
|
3333,
|
|
33,
|
|
33,
|
|
33,
|
|
33,
|
|
6008,
|
|
#GOGOSTART
|
|
30030000,
|
|
30030000,
|
|
4444,
|
|
4004004000004000,
|
|
68,
|
|
68,
|
|
6,
|
|
0,
|
|
8,
|
|
#GOGOEND
|
|
0,
|
|
1,
|
|
1,
|
|
1,
|
|
1,
|
|
1,
|
|
1,
|
|
1,
|
|
1,
|
|
1,
|
|
1,
|
|
1,
|
|
1,
|
|
1,
|
|
1,
|
|
1,
|
|
1,
|
|
3,
|
|
68,
|
|
#GOGOSTART
|
|
30030000,
|
|
30030000,
|
|
4444,
|
|
4004004000000000,
|
|
30030000,
|
|
30030000,
|
|
4044,
|
|
4004004000000000,
|
|
30030000,
|
|
30030000,
|
|
4444,
|
|
4004004000000000,
|
|
3,
|
|
3,
|
|
3,
|
|
60000008,
|
|
0,
|
|
#GOGOEND
|
|
04,
|
|
#END
|
|
COURSE:Easy
|
|
LEVEL:2
|
|
BALLOON:
|
|
SCOREINIT:
|
|
SCOREDIFF:
|
|
NOTESDESIGNER0:Colin
|
|
|
|
|
|
#START
|
|
3,
|
|
0,
|
|
3,
|
|
33,
|
|
3,
|
|
3,
|
|
3,
|
|
3,
|
|
6008,
|
|
#GOGOSTART
|
|
3,
|
|
3,
|
|
4,
|
|
4004,
|
|
68,
|
|
68,
|
|
6,
|
|
0,
|
|
8,
|
|
#GOGOEND
|
|
0,
|
|
1,
|
|
0,
|
|
1,
|
|
0,
|
|
1,
|
|
0,
|
|
1,
|
|
0,
|
|
1,
|
|
0,
|
|
1,
|
|
0,
|
|
1,
|
|
0,
|
|
1,
|
|
0,
|
|
3,
|
|
68,
|
|
#GOGOSTART
|
|
3,
|
|
3,
|
|
44,
|
|
40040000,
|
|
3,
|
|
3,
|
|
44,
|
|
40040000,
|
|
3,
|
|
3,
|
|
44,
|
|
40040000,
|
|
3,
|
|
3,
|
|
3,
|
|
60000008,
|
|
0,
|
|
#END
|
|
04,
|
|
#END
|
|
|
|
|
|
|
|
|
|
|
|
|