generated from DragonRatTiger/Custom-Charts
477 lines
5.1 KiB
Plaintext
477 lines
5.1 KiB
Plaintext
TITLE:grilletto
|
|
TITLEJA:grilletto
|
|
SUBTITLE:--GARNiDELiA / The irregular at magic high school
|
|
SUBTITLEJA:GARNiDELiA「魔法科高校の劣等生」より
|
|
BPM:191
|
|
WAVE:grilletto.ogg
|
|
OFFSET:-0.379
|
|
DEMOSTART:58.180
|
|
BGMOVIE:.mp4
|
|
MAKER:Colin
|
|
|
|
COURSE:Edit
|
|
LEVEL:10
|
|
BALLOON:2,5,10
|
|
SCOREINIT:
|
|
SCOREDIFF:
|
|
NOTESDESIGNER4:Colin
|
|
|
|
#START
|
|
0000000000221000,
|
|
0201,
|
|
1201,
|
|
22022100,
|
|
0000102211111012,
|
|
1010101210101012,
|
|
1010101210101020,
|
|
2011101010200000,
|
|
0000000000001021,
|
|
2000112000112000,
|
|
1120112111201011,
|
|
2010112220101000,
|
|
221000102000
|
|
#GOGOSTART
|
|
1212,
|
|
1010111120221011,
|
|
1120102010221122,
|
|
1122112022101012,
|
|
1020121210211011,
|
|
2010111120221011,
|
|
1120102010221122,
|
|
1122112210300040,
|
|
00
|
|
#GOGOEND
|
|
30007000802022,
|
|
1020101110101010,
|
|
1010201011201022,
|
|
1011222210201012,
|
|
1022102212221020,
|
|
1222102011201011,
|
|
2221101021221011,
|
|
21121101,
|
|
2000000022221111,
|
|
2022101011200011,
|
|
2111222210121211,
|
|
2022101120101011,
|
|
2022101120101011,
|
|
2022101120101011,
|
|
2022101120101011,
|
|
2020102000200021,
|
|
21111070,
|
|
81212111,
|
|
2022202000001000,
|
|
21210122,
|
|
2022101120221000,
|
|
2220101020101020,
|
|
1011211120003030,
|
|
03303300,
|
|
00000033,
|
|
03303370,
|
|
000000802000
|
|
#GOGOSTART
|
|
1212,
|
|
1022122210201121,
|
|
1120102120221111,
|
|
2011112120111211,
|
|
2022101120111012,
|
|
1011201212112022,
|
|
1222111020101121,
|
|
2111211120100040,
|
|
4000111122221212,
|
|
1022122210201121,
|
|
1120102120221111,
|
|
2011112120111211,
|
|
2022101120111012,
|
|
1011201212112022,
|
|
1222111020101121,
|
|
2111211120
|
|
#GOGOEND
|
|
100010,
|
|
200011112000
|
|
#GOGOSTART
|
|
1212,
|
|
1010111120221011,
|
|
1120102010221122,
|
|
1122112022101012,
|
|
1020121210211011,
|
|
2010111120221011,
|
|
1120102010221122,
|
|
1122112210300040,
|
|
0
|
|
#GOGOEND
|
|
3000000,
|
|
#END
|
|
|
|
COURSE:Oni
|
|
LEVEL:8
|
|
BALLOON:
|
|
SCOREINIT:
|
|
SCOREDIFF:
|
|
NOTESDESIGNER3:Colin
|
|
|
|
|
|
#START
|
|
20220200,
|
|
00002200,
|
|
0022,
|
|
22020202,
|
|
2000001120102010,
|
|
1010101010112020,
|
|
2020202020201122,
|
|
1122101110100000,
|
|
0000000000001021,
|
|
2000112000112000,
|
|
1120002000200021,
|
|
2000112000112000,
|
|
11200010200000
|
|
#GOGOSTART
|
|
21,
|
|
2011112020112011,
|
|
1120102120201021,
|
|
2011112020112011,
|
|
1120102120200021,
|
|
2011112020112111,
|
|
1120112120200021,
|
|
2000112000200020,
|
|
00
|
|
#GOGOEND
|
|
20000011221000,
|
|
1111,
|
|
1111,
|
|
1111,
|
|
1000100010001011,
|
|
2010000010202210,
|
|
1010101020221000,
|
|
10101201,
|
|
2000000022221011,
|
|
2022102120102211,
|
|
2010201111201011,
|
|
2011201120102011,
|
|
2000101020001111,
|
|
2010221120100011,
|
|
2010101010102011,
|
|
20112102,
|
|
1011201010101000,
|
|
21210210,
|
|
11210020,
|
|
21010508,
|
|
2011201020111000,
|
|
11222121,
|
|
0011222210001010,
|
|
01101100,
|
|
01110012,
|
|
12202200,
|
|
000000002000
|
|
#GOGOSTART
|
|
1011,
|
|
2011221120221011,
|
|
2011211120221011,
|
|
2211202210201111,
|
|
2022101020201000,
|
|
2210001020111010,
|
|
21012101,
|
|
0010001020101111,
|
|
2022101122221011,
|
|
2011221120221011,
|
|
2011211120221011,
|
|
2211202210201111,
|
|
2022101020201000,
|
|
2210001020111010,
|
|
21012101,
|
|
01012
|
|
#GOGOEND
|
|
100,
|
|
00000000200000
|
|
#GOGOSTART
|
|
21,
|
|
2011112020112011,
|
|
1120102120201021,
|
|
2011112020112011,
|
|
1120102120200021,
|
|
2011112020112111,
|
|
1120112120200021,
|
|
2000112000200020,
|
|
0
|
|
#GOGOEND
|
|
2000000,
|
|
#END
|
|
|
|
COURSE:Hard
|
|
LEVEL:5
|
|
BALLOON:
|
|
SCOREINIT:
|
|
SCOREDIFF:
|
|
NOTESDESIGNER2:Colin
|
|
|
|
|
|
#START
|
|
20220500,
|
|
0,
|
|
08002020,
|
|
22020202,
|
|
2000222010001011,
|
|
1000101110001011,
|
|
1000101110101010,
|
|
11111200,
|
|
00000002,
|
|
20220220,
|
|
22020202,
|
|
20220222,
|
|
202000102000
|
|
#GOGOSTART
|
|
1110,
|
|
2000102000222020,
|
|
1020001000101110,
|
|
2000102000222020,
|
|
1020001000101110,
|
|
2000102000222020,
|
|
1020001000100011,
|
|
1000111020100010,
|
|
0
|
|
#GOGOEND
|
|
1000020,
|
|
0022202000200022,
|
|
2000222000200020,
|
|
20202202,
|
|
2211,
|
|
0011100010100010,
|
|
01111010,
|
|
10121200,
|
|
0000000022222000,
|
|
1111,
|
|
1000111110200010,
|
|
22110101,
|
|
20212050,
|
|
0,
|
|
00082110,
|
|
10110101,
|
|
50000810,
|
|
11010100,
|
|
11110010,
|
|
11010500,
|
|
81200210,
|
|
20111100,
|
|
10110033,
|
|
03303300,
|
|
00000033,
|
|
03303300,
|
|
000020
|
|
#GOGOSTART
|
|
11,
|
|
2011101020001010,
|
|
2011101020002000,
|
|
2220002000200020,
|
|
20012210,
|
|
1010001000111010,
|
|
21010101,
|
|
01011101,
|
|
1002,
|
|
00012100,
|
|
0012,
|
|
2022202000200020,
|
|
2000111110102020,
|
|
1010001000101011,
|
|
11010101,
|
|
01011100,
|
|
000000002000
|
|
#GOGOSTART
|
|
1110,
|
|
2000102000222020,
|
|
1020001000101110,
|
|
2000102000222020,
|
|
1020001000101110,
|
|
2000102000222020,
|
|
1020001000100011,
|
|
1000111020100010,
|
|
0
|
|
#GOGOEND
|
|
1000000,
|
|
#END
|
|
|
|
COURSE:Normal
|
|
LEVEL:7
|
|
BALLOON:
|
|
SCOREINIT:
|
|
SCOREDIFF:
|
|
NOTESDESIGNER1:Colin
|
|
|
|
|
|
#START
|
|
20220500,
|
|
0,
|
|
08000020,
|
|
02020202,
|
|
2011,
|
|
1111,
|
|
10100101,
|
|
01011200,
|
|
00000002,
|
|
20220220,
|
|
22020202,
|
|
20220222,
|
|
2201200
|
|
#GOGOSTART
|
|
1,
|
|
20100120,
|
|
10101101,
|
|
20100120,
|
|
10101101,
|
|
20120120,
|
|
12020200,
|
|
00000101,
|
|
0
|
|
#GOGOEND
|
|
1000020,
|
|
0202,
|
|
0202,
|
|
0202,
|
|
0211,
|
|
00001101,
|
|
01110010,
|
|
10121200,
|
|
0022,
|
|
1111,
|
|
10111201,
|
|
20110101,
|
|
20212050,
|
|
0,
|
|
00082110,
|
|
10110101,
|
|
50000810,
|
|
11010100,
|
|
10110010,
|
|
11010500,
|
|
81200210,
|
|
20111100,
|
|
10110033,
|
|
03303300,
|
|
00000033,
|
|
03303300,
|
|
002
|
|
#GOGOSTART
|
|
5,
|
|
0,
|
|
0822,
|
|
2222,
|
|
21201110,
|
|
11010111,
|
|
11010101,
|
|
01011101,
|
|
1500,
|
|
00812100,
|
|
0012,
|
|
22020202,
|
|
20111122,
|
|
11010111,
|
|
11010101,
|
|
01011100,
|
|
00002011,
|
|
20120222,
|
|
12010111,
|
|
20120222,
|
|
12010111,
|
|
20120222,
|
|
12010101,
|
|
10112101,
|
|
01000000,
|
|
#END
|
|
|
|
COURSE:Easy
|
|
LEVEL:1
|
|
BALLOON:10,10,
|
|
SCOREINIT:
|
|
SCOREDIFF:
|
|
NOTESDESIGNER0:Colin
|
|
|
|
#START
|
|
00000500,
|
|
0,
|
|
00080000,
|
|
0,
|
|
0005,
|
|
0,
|
|
0,
|
|
00000008,
|
|
0,
|
|
0,
|
|
0,
|
|
0,
|
|
02,
|
|
#GOGOSTART
|
|
22,
|
|
22,
|
|
22,
|
|
2220,
|
|
22,
|
|
22,
|
|
2,
|
|
0
|
|
#GOGOEND
|
|
2000010,
|
|
0,
|
|
00000100,
|
|
0,
|
|
0107,
|
|
0,
|
|
0081,
|
|
0,
|
|
02,
|
|
11,
|
|
11,
|
|
11,
|
|
1017,
|
|
0,
|
|
0081,
|
|
0,
|
|
0001,
|
|
0001,
|
|
0001,
|
|
0001,
|
|
0001,
|
|
00000100,
|
|
0101,
|
|
0,
|
|
0001,
|
|
0,
|
|
000
|
|
#GOGOSTART
|
|
1,
|
|
0101,
|
|
1101,
|
|
1101,
|
|
1105,
|
|
0008,
|
|
0005,
|
|
0,
|
|
8001,
|
|
1100,
|
|
1011,
|
|
0,
|
|
1001,
|
|
0101,
|
|
1101,
|
|
00100
|
|
#GOGOEND
|
|
100,
|
|
000
|
|
#GOGOSTART
|
|
5,
|
|
00000008,
|
|
0200,
|
|
0,
|
|
0200,
|
|
0,
|
|
0200,
|
|
0,
|
|
0
|
|
#GOGOEND
|
|
2000000,
|
|
#END
|
|
|
|
|
|
|
|
|
|
|
|
|
|
|