Files
Colins_Custom_Charts/02 Anime/staple stable/staple stable.tja
T
2025-06-11 19:53:16 -04:00

256 lines
2.5 KiB
Plaintext
Raw Blame History

This file contains ambiguous Unicode characters
This file contains Unicode characters that might be confused with other characters. If you think that this is intentional, you can safely ignore this warning. Use the Escape button to reveal them.
TITLE:staple stable
SUBTITLE:--Hitagi Senjougahara (CV:Chiwa Saito) / Bakemonogatari
BPM:129
WAVE:staple stable.ogg
OFFSET:-0.286
DEMOSTART:53.774
BGMOVIE:.mp4
MAKER:Colin
COURSE:Oni
LEVEL:7
BALLOON:
SCOREINIT:
SCOREDIFF:
NOTESDESIGNER3:Colin
#START
2021012021202122,
1021012021202121,
1021012121202122,
1021112021202121,
2000101200102010,
0000101200201022,
1001201200112010,
2000102100121022,
1000101200102011,
2002102100201050,
0008,
2222,
1000101200102010,
0000101200201022,
1001201200112010,
2000102100121020,
5008,
5000801222112010,
5008,
1022102000221020,
1011201201201010,
1012012010121011,
2000202120221020,
1021021020212122,
1000121200100012,
1021021000212010,
5000000000801210,
50000008,
2221201121112111,
#GOGOSTART
2021025000008011,
2021021022121120,
1112112010121120,
2120212211202121,
2021025000008011,
2021021022121120,
1112112010121120,
2120212211202120,
5000000000008011,
2000201210102011,
2021201010105000,
0008,
#GOGOEND
2000101200201010,
1200,
2021012021202122,
1021012021202121,
1022022210201120,
1112021010201120,
#END
COURSE:Hard
LEVEL:5
BALLOON:
SCOREINIT:
SCOREDIFF:
NOTESDESIGNER2:Colin
#START
1011101000000000,
2022202000000000,
1011101000000000,
2022202000000000,
1000101100101110,
2000101100111010,
1000101100101020,
1000101100102020,
1000101100102010,
1000101100101020,
25000080,
2222,
1000101100101020,
0000201100101010,
0000101100101020,
0000101100101010,
5008,
5008,
5008,
0,
1011100010111000,
1011100010111000,
2022200020222000,
2022200020222000,
2000111100200020,
1011011010101020,
50000800,
5,
8,
3003006000008000,
3003006000800000,
1000111020220010,
22220000,
#GOGOSTART
3003006000008000,
3003006000800000,
1000111020220010,
22220000,
50000800,
10110104,
00440460,
0008,
#GOGOEND
1,
1100,
5,
0800,
2022022220202220,
2022222020202220,
#END
COURSE:Normal
LEVEL:4
BALLOON:
SCOREINIT:
SCOREDIFF:
NOTESDESIGNER1:Colin
#START
1001001000000000,
1001001000000000,
1001001000000000,
1001001000000000,
1111,
2000000100000000,
1,
2000200100000000,
1000100100000000,
10000005,
0,
00000008,
10010020,
10010020,
10010020,
10010020,
5,
0,
0008,
0,
1111,
1111,
1111,
1111,
1111,
1111,
5,
0,
8,
30060080,
30068000,
2222,
20220000,
#GOGOSTART
30060080,
30068000,
2222,
20220000,
5008,
50000085,
0,
0008,
2,
#GOGOEND
1200,
1,
2,
1,
20000002,
#END
COURSE:Easy
LEVEL:1
BALLOON:
SCOREINIT:
SCOREDIFF:
NOTESDESIGNER0:Colin
#START
1,
1,
1,
1,
2,
2,
2,
2,
2,
2,
2,
50000008,
1,
1,
1,
1,
5,
0,
0008,
0,
1,
2,
2,
1,
12,
11,
5,
00000008,
0,
6,
08,
#GOGOSTART
22,
20020000,
6,
08,
11,
1111,
5008,
50000085,
00000860,
0008,
#GOGOEND
22,
2200,
2,
2,
2,
2,
#END