Files
Colins_Custom_Charts/03 VOCALOID/Blade/Blade.tja
T
2025-12-20 15:52:49 -05:00

393 lines
4.4 KiB
Plaintext

TITLE:Blade
SUBTITLE:--Hiiragi Magnetite feat. Miku Hatsune
TITLEJA:終焉逃避行
SUBTITLEJA:柊マグネタイト feat. 初音ミク
PREIMAGE:Blade.png
BGMOVIE:Blade.mp4
WAVE:Blade.ogg
BPM:147
OFFSET:-0.028
DEMOSTART:58.395
GENRE:ボーカロイド
MAKER:Colin
COURSE:Easy
LEVEL:2
SCOREINIT:
SCOREDIFF:
NOTESDESIGNER0:Colin
#START
000
#BARLINEOFF
0,
,
#BARLINEON
0,
,
#GOGOSTART
3010,
1110,
1010,
1,
#GOGOEND
2020,
2,
2020,
2,
1010,
1110,
1010,
1,
#GOGOSTART
4020,
2220,
2020,
2,
#GOGOEND
1010,
1,
1010,
1,
3030,
3030,
3,
2020,
2,
2020,
2,
4,
4,
,
3030,
3,
#GOGOSTART
3010,
1110,
1010,
1,
2020,
2220,
4040,
4,
3010,
1110,
1010,
5080,
2020,
2,
2050,
8,
1,
1010,
1,
2020,
2020,
#GOGOEND
2,
#END
COURSE:Normal
LEVEL:4
SCOREINIT:
SCOREDIFF:
NOTESDESIGNER1:Colin
#START
330000
#BARLINEOFF
00,
,
#BARLINEON
0,
,
#GOGOSTART
30001011,
1110,
1011,
1,
#GOGOEND
20022000,
2,
20022000,
2,
10011001,
1110,
1010,
1,
#GOGOSTART
40002022,
2220,
2022,
2,
#GOGOEND
1010,
1110,
1010,
1,
3030,
3030,
3,
2020,
20002002,
0002,
2020,
4,
40001001,
0001,
3030,
3,
#GOGOSTART
30011010,
10111000,
1011,
1,
20022020,
2220,
4040,
4,
3110,
10111000,
10101011,
5080,
2220,
20222020,
2050,
8010,
10111000,
1010,
1110,
2022,
20222020,
#GOGOEND
2020,
#END
COURSE:Hard
LEVEL:5
SCOREINIT:
SCOREDIFF:
NOTESDESIGNER2:Colin
#START
330000
#BARLINEOFF
00,
0000000000300300,
#BARLINEON
3000022200300300,
3030,
#GOGOSTART
30210120,
11210120,
10210120,
1022200110102000,
#GOGOEND
10021002,
10102012,
20011001,
11111020,
1001001020000020,
1001002010001020,
10012002,
21212000,
#GOGOSTART
10210122,
01201120,
10210120,
1022202010102000,
#GOGOEND
02121212,
10112001,
20121212,
10201120,
3003003030000000,
3003003030000000,
30201120,
12121000,
30200122,
0020002200001020,
1002002020002000,
2002002200102010,
2000001020020010,
0020100100102010,
20022002,
3003003000000000,
#GOGOSTART
3000201100102001,
00012121,
2000002200101005,
00008012,
1000001100201020,
10102022,
1002001010000022,
2002001011100000,
30201122,
12122001,
20222222,
10221000,
10201122,
10112022,
3000002010222020,
30201121,
21212002,
1000222220102010,
20112000,
10201121,
21222012,
#GOGOEND
10012000,
#END
COURSE:Oni
LEVEL:8
SCOREINIT:
SCOREDIFF:
NOTESDESIGNER3:Colin
#START
330000
#BARLINEOFF
00,
0000000000300300,
#BARLINEON
30003000002220200000300000300000,
3021022030000000,
#GOGOSTART
3000201210102012,
1011201210102020,
1000201210112022,
1021201201112020,
#GOGOEND
30021002,
12112011,
58121001,
11121040,
3002011010000022,
1012021210002010,
58212002,
1020102030121111,
#GOGOSTART
1000201210102012,
1011201210102020,
1000201210112022,
1021201201112020,
#GOGOEND
32121122,
1001102050800010,
1000102010102022,
1000201120112222,
1021021210201122,
1021021210221020,
1010201210112022,
1010202030210210,
3030201210112030,
0210201200201012,
1002102010021020,
3003001201101122,
1010201210112030,
0210201201201020,
1000002210000020,
3003003000000000,
#GOGOSTART
3000201212102012,
1022101210202020,
1000201210102011,
1010201210212022,
1000201212102012,
1022101210202020,
1012022010102011,
1021012010210112,
1000201210102010,
1021201022112010,
1000201210202020,
1011202011212020,
1021202010212010,
1011201020112102,
1022012011112222,
1000201210102010,
1021201022112010,
1000221210202020,
1011202011212020,
1021202010212010,
1011201020112102,
#GOGOEND
1001002010101010,
#END
COURSE:Edit
LEVEL:9
SCOREINIT:
SCOREDIFF:
NOTESDESIGNER4:Colin
#START
112200000000
#BARLINEOFF
0000,
0000000000212122,
#BARLINEON
1112022100112212,
1112121211121212,
#GOGOSTART
1012012101212212,
1012101212112011,
1012012101212212,
1012101212112011,
#GOGOEND
10021002,
12112011,
58121001,
11121040,
3021021210210211,
1021012210210211,
1021021210210211,
1021012210212211,
#GOGOSTART
1012012101212212,
1012101212112011,
1012012101212212,
1012101212112011,
#GOGOEND
1022021101212012,
1112012212112122,
1112021101201212,
1122021211112220,
3021021011221122,
1021012110211120,
1122021211112122,
1022121210210211,
1010212210212211,
0121101201202211,
1012102012021020,
3003002201102222,
1010221210120210,
1110201201201020,
3002002210020020,
3003003000000000,
#GOGOSTART
3021012201201022,
1022102211221120,
1012120212212022,
1022102211210121,
1021012212012022,
1022102211112020,
1012022011212012,
1022012011221212,
1011220211210120,
1122012011210210,
1010221121012120,
1221202212112020,
1012012011212020,
1011201211211122,
1010201211112222,
1011220211210120,
1122012011210210,
1010221121012120,
1221202212112020,
1012012011212020,
1011201211211122,
#GOGOEND
1021021020202020,
#END