generated from DragonRatTiger/Custom-Charts
317 lines
3.3 KiB
Plaintext
317 lines
3.3 KiB
Plaintext
TITLE:Blushing Cherry
|
|
SUBTITLE:--isidore. & HWAAStyle feat. Teto Kasane
|
|
TITLEJA:Blushing Cherry
|
|
SUBTITLEJA:isidore.、 HWAAStyle feat. 重音テト
|
|
PREIMAGE:Blushing Cherry.png
|
|
BGMOVIE:Blushing Cherry.mp4
|
|
WAVE:Blushing Cherry.ogg
|
|
BPM:130
|
|
OFFSET:-0.060
|
|
DEMOSTART:59.136
|
|
GENRE:ボーカロイド
|
|
MAKER:Colin
|
|
|
|
COURSE:Easy
|
|
LEVEL:3
|
|
NOTESDESIGNER0:Colin
|
|
|
|
#START
|
|
#GOGOSTART
|
|
31,
|
|
10101001,
|
|
01,
|
|
1,
|
|
20002002,
|
|
00202002,
|
|
00002002,
|
|
0220,
|
|
10001011,
|
|
00010011,
|
|
00010101,
|
|
0011,
|
|
1,
|
|
10000001,
|
|
0110,
|
|
1,
|
|
#GOGOEND
|
|
20020050,
|
|
00008002,
|
|
00020050,
|
|
08,
|
|
20020050,
|
|
00008002,
|
|
00020050,
|
|
0008,
|
|
2220,
|
|
2220,
|
|
2220,
|
|
20222020,
|
|
2022,
|
|
20002002,
|
|
00020020,
|
|
0022,
|
|
#GOGOSTART
|
|
31,
|
|
10101001,
|
|
01,
|
|
1,
|
|
20002002,
|
|
00202002,
|
|
00002002,
|
|
0220,
|
|
10001011,
|
|
00010011,
|
|
00010101,
|
|
0011,
|
|
1,
|
|
10000001,
|
|
0110,
|
|
1,
|
|
#GOGOEND
|
|
0110,
|
|
10001001,
|
|
01,
|
|
1111,
|
|
1,
|
|
,
|
|
,
|
|
,
|
|
20202002,
|
|
02002002,
|
|
00000002,
|
|
0022,
|
|
2,
|
|
00000002,
|
|
,
|
|
,
|
|
1,
|
|
#END
|
|
|
|
COURSE:Normal
|
|
LEVEL:5
|
|
NOTESDESIGNER1:Colin
|
|
|
|
#START
|
|
#GOGOSTART
|
|
30001011,
|
|
10101011,
|
|
0111,
|
|
11,
|
|
20222022,
|
|
02022022,
|
|
00202022,
|
|
02222020,
|
|
10001011,
|
|
01010111,
|
|
01010101,
|
|
01101111,
|
|
10001011,
|
|
10000011,
|
|
0111,
|
|
1,
|
|
#GOGOEND
|
|
20020050,
|
|
00008002,
|
|
00020250,
|
|
0082,
|
|
20020050,
|
|
00008022,
|
|
00020050,
|
|
0008,
|
|
20202002,
|
|
20222000,
|
|
20202022,
|
|
20222220,
|
|
20202022,
|
|
20202002,
|
|
00220220,
|
|
2222,
|
|
#GOGOSTART
|
|
30111010,
|
|
10101111,
|
|
01011010,
|
|
10101110,
|
|
20202022,
|
|
02022022,
|
|
02022022,
|
|
02022220,
|
|
10101011,
|
|
01010111,
|
|
01010111,
|
|
01101011,
|
|
01110101,
|
|
10010001,
|
|
00101110,
|
|
10010000,
|
|
#GOGOEND
|
|
00101011,
|
|
10011011,
|
|
0011,
|
|
10111011,
|
|
1,
|
|
,
|
|
,
|
|
,
|
|
20222022,
|
|
02022022,
|
|
02022222,
|
|
02022020,
|
|
2,
|
|
00000002,
|
|
,
|
|
,
|
|
1,
|
|
#END
|
|
|
|
COURSE:Hard
|
|
LEVEL:6
|
|
NOTESDESIGNER2:Colin
|
|
|
|
#START
|
|
#GOGOSTART
|
|
30222021,
|
|
21122221,
|
|
01012121,
|
|
1020202020202220,
|
|
10222012,
|
|
0020001020101110,
|
|
01012222,
|
|
0020001020111010,
|
|
02222122,
|
|
01010121,
|
|
0020001011102010,
|
|
01222121,
|
|
0010202200201020,
|
|
12220121,
|
|
01102212,
|
|
12220121,
|
|
#GOGOEND
|
|
30030060,
|
|
00008004,
|
|
00040060,
|
|
0008,
|
|
30030060,
|
|
00000804,
|
|
00040060,
|
|
0008,
|
|
1022200000102000,
|
|
1010200100102010,
|
|
0022200011102000,
|
|
1000202220102010,
|
|
10201121,
|
|
0011101010201010,
|
|
0010201110102010,
|
|
0020202220102010,
|
|
#GOGOSTART
|
|
30222021,
|
|
21122221,
|
|
01012121,
|
|
1020202020202220,
|
|
10222012,
|
|
0020001020101110,
|
|
01012222,
|
|
0020001020111010,
|
|
02222122,
|
|
01010121,
|
|
0020001011102010,
|
|
01222121,
|
|
0010202200201020,
|
|
12220121,
|
|
01102212,
|
|
12220121,
|
|
#GOGOEND
|
|
30210020,
|
|
00010111,
|
|
00020020,
|
|
00020022,
|
|
10020010,
|
|
00010021,
|
|
00020020,
|
|
00012022,
|
|
10222022,
|
|
02022222,
|
|
02022222,
|
|
02022222,
|
|
2,
|
|
00000001,
|
|
00120220,
|
|
10122221,
|
|
1,
|
|
#END
|
|
|
|
COURSE:Oni
|
|
LEVEL:7
|
|
NOTESDESIGNER3:Colin
|
|
|
|
#START
|
|
#GOGOSTART
|
|
3012202212102020,
|
|
1011202022102030,
|
|
0021201120102022,
|
|
1020202220202010,
|
|
3000202120102011,
|
|
0122201011202030,
|
|
0011201012102011,
|
|
0211201030303030,
|
|
3020202220202012,
|
|
0210202021102030,
|
|
0010202220102010,
|
|
0011202012102022,
|
|
1020101202201020,
|
|
1011202202112030,
|
|
0110202010121020,
|
|
12120222,
|
|
#GOGOEND
|
|
30030060,
|
|
00000804,
|
|
00040060,
|
|
00000800,
|
|
30030060,
|
|
00000804,
|
|
00040060,
|
|
0008,
|
|
3022202000102012,
|
|
1022202201212010,
|
|
0210202220102011,
|
|
1010202220102010,
|
|
1022202000102012,
|
|
1022202201212010,
|
|
0210202220102011,
|
|
1010202220102000,
|
|
#GOGOSTART
|
|
3012202212102020,
|
|
1011202022102030,
|
|
0021201120102022,
|
|
1020202220202010,
|
|
3000202120102011,
|
|
0122201011202030,
|
|
0011201012102011,
|
|
0211201030303030,
|
|
3020202220202012,
|
|
0210202021102030,
|
|
0010202220102010,
|
|
0011202012102022,
|
|
1020101202201020,
|
|
1011202202112030,
|
|
0110202010121020,
|
|
12120222,
|
|
#GOGOEND
|
|
30122012,
|
|
12112112,
|
|
02021210,
|
|
22222221,
|
|
20010020,
|
|
00010121,
|
|
00120120,
|
|
10112012,
|
|
10222021,
|
|
01021112,
|
|
02021122,
|
|
01012222,
|
|
10010020,
|
|
00120121,
|
|
00220120,
|
|
10121222,
|
|
1,
|
|
#END
|