Files
Colins_Custom_Charts/03 VOCALOID/If/If.tja
T
2025-12-20 15:52:49 -05:00

401 lines
4.0 KiB
Plaintext

TITLE:If
SUBTITLE:--Yurry Cannon feat. MORE MORE JUMP! / Project SEKAI COLORFUL STAGE!
TITLEJA:イフ
SUBTITLEJA:ユリイ・カノン feat. MORE MORE JUMP! 「プロジェクトセカイ カラフルステージ!」より
PREIMAGE:If.png
BGMOVIE:If.mp4
WAVE:If.ogg
BPM:134.862
OFFSET:-5.314
DEMOSTART:56.254
MAKER:Colin
COURSE:Easy
LEVEL:2
SCOREINIT:
SCOREDIFF:
NOTESDESIGNER0:Colin
#START
1,
1,
1,
1,
1,
#GOGOSTART
2020,
2,
2020,
2,
2020,
2,
1010,
1,
#GOGOEND
1,
1,
1,
1,
1,
1,
1,
1010,
1010,
1,
1010,
1,
2,
2,
2020,
2,
#GOGOSTART
30030000,
30030000,
1010,
#GOGOEND
1,
#GOGOSTART
40040000,
40040000,
1010,
100
#GOGOEND
00000,
#GOGOSTART
30030000,
30030000,
1010,
1,
40040000,
40040000,
2020,
2,
30030000,
30030000,
1010,
1,
40040000,
40040000,
1010,
#GOGOEND
5080,
1020,
1020,
1020,
1020,
1020,
1020,
1020,
1022,
5,
#GOGOSTART
8,
1010,
1,
1010,
1,
1010,
1,
1000100
#GOGOEND
0,
#END
COURSE:Normal
LEVEL:5
SCOREINIT:
SCOREDIFF:
NOTESDESIGNER1:Colin
#START
1010,
1,
1010,
1,
1011,
#GOGOSTART
2022,
2020,
2022,
2020,
2022,
2020,
1011,
1010,
#GOGOEND
1010,
1,
1011,
1,
1011,
1010,
1,
1111,
1011,
1010,
1012,
1022,
2,
2,
2220,
2,
#GOGOSTART
30230000,
30230020,
1212,
#GOGOEND
10010000,
#GOGOSTART
40040011,
40040011,
1011,
100
#GOGOEND
01011,
#GOGOSTART
30030010,
30030010,
10001011,
1010,
40140000,
40140001,
2121,
2,
30230000,
30230000,
1212,
1020,
40140000,
40140000,
10111010,
#GOGOEND
5080,
1120,
10112000,
1120,
10112000,
1120,
1120,
10112000,
1022,
5,
#GOGOSTART
8,
1011,
1010,
1011,
1010,
1011,
1010,
1000101
#GOGOEND
0,
#END
COURSE:Hard
LEVEL:4
SCOREINIT:
SCOREDIFF:
NOTESDESIGNER2:Colin
#START
12220010,
12220111,
10010111,
10220211,
2022002020220020,
#GOGOSTART
2011005000008000,
1101005000008000,
2002022000002000,
50000008,
2011005000008000,
1101005000008000,
2002022000002000,
50000008,
#GOGOEND
11110122,
00022022,
10110222,
00000111,
20220221,
00022020,
11110111,
0222,
1011005000000080,
1011050000000080,
22222222,
2011,
10020022,
20010010,
11111111,
1,
#GOGOSTART
3010101001102010,
33340222,
30430111,
#GOGOEND
44430000,
#GOGOSTART
3010101001102010,
33340222,
30430111,
222
#GOGOEND
20000,
#GOGOSTART
3010101001102010,
33340222,
30430111,
44430111,
3010101001102010,
33340222,
30430111,
20000111,
3010101001102010,
33340222,
30430111,
44430000,
3010101001102010,
33340222,
30430111,
#GOGOEND
5080,
10212120,
10212120,
10212120,
10212120,
10212120,
10212120,
10212120,
10212120,
2022002220220020,
#GOGOSTART
2011005000008000,
1101005000008000,
2002022000002000,
50000008,
2011005000008000,
1101005000008000,
2002022000002000,
5000000
#GOGOEND
8,
#END
COURSE:Oni
LEVEL:8
SCOREINIT:
SCOREDIFF:
NOTESDESIGNER3:Colin
#START
#MEASURE 8/4
#SCROLL 0.5
1222022112220211,
1002012221220212,
#MEASURE 4/4
#SCROLL 1
2112012021120121,
#GOGOSTART
2012012010221020,
1102112010221120,
1102012010221020,
1102012010221120,
2012012010221020,
1102112010221120,
1102012010221020,
1102012010221120,
#GOGOEND
1011011022112020,
1021012010112020,
1011201022112012,
1102112022112020,
2021012012102011,
1021012010112010,
1021102022102012,
1201201211221111,
2012021211201120,
1011210211202120,
2112112212021120,
1012112212221111,
#MEASURE 8/4
1
#SCROLL 0.5
002002020020010,
#MEASURE 4/4
#SCROLL 1
2222222222222222,
2021011000101010,
#GOGOSTART
1101202211012010,
1210102212021120,
2011201212021122,
#GOGOEND
24440444,
#GOGOSTART
2201202211012010,
1212102212021120,
2011202202221122,
222222
#GOGOEND
2000
#SCROLL 1.2
121122,
#GOGOSTART
1011202211202010,
1210102211102120,
2011201202201122,
2040404012221
#SCROLL 1.3
022,
1021202211012010,
1210102212021120,
1011201210221020,
2022102011221020,
#SCROLL 1.4
1101202211012010,
1210102212021120,
2011201212021122,
2040404011212020,
#SCROLL 1.5
1101202211012010,
1210102212021120,
2011201212021120,
#GOGOEND
#SCROLL 1
5000008021121120,
2011201020112010,
2011201020112010,
2011201020112010,
2011201020112010,
2011201020112010,
2011201020112010,
2011201020112010,
2011201020112010,
2112112021121120,
#GOGOSTART
#SCROLL 1.2
2012012010221020,
1102112010221120,
1102012010221020,
1102012010221120,
2012012010221020,
1102112010221120,
1102012010221020,
11020120102211
#GOGOEND
20,
#END