Files
Colins_Custom_Charts/03 VOCALOID/JINSEI/JINSEI.tja
T
2025-12-20 15:52:49 -05:00

563 lines
6.4 KiB
Plaintext

TITLE:JINSEI (Our Life)
SUBTITLE:--Ann-Melts-P feat. Miku Hatsune, Len Kagamine, Rin Kagamine, Luka Megurine, MEIKO, & KAITO / Project SEKAI COLORFUL STAGE!
TITLEJA:人生
SUBTITLEJA:アンメルツP feat. 初音ミク, 鏡音レン, 鏡音リン, 巡音ルカ, MEIKO, KAITO 「プロジェクトセカイ カラフルステージ!」より
PREIMAGE:JINSEI.png
BGMOVIE:JINSEI.mp4
WAVE:JINSEI.ogg
BPM:185
OFFSET:-0.041
DEMOSTART:96.8798
MAKER:Colin
COURSE:Easy
LEVEL:5
SCOREINIT:
SCOREDIFF:
NOTESDESIGNER0:Colin
#START
,
#GOGOSTART
3030,
3030,
3030,
3030,
1010,
1010,
1,
5,
0080,
,
0000000
#GOGOEND
000000000,
#BPMCHANGE 142
2020,
2,
2020,
2,
2020,
2,
2020,
2020,
2,
1010,
1,
1010,
1,
1010,
1,
1010,
1,
#BPMCHANGE 188
0
#BPMCHANGE 185
000,
2020,
2,
2020,
2,
2020,
5,
,
0008,
1,
1010,
1,
1010,
1,
1,
1010,
1,
1010,
1010,
1010,
1010,
5,
0080,
1010,
1010,
#BPMCHANGE 92.5
#SCROLL 1
2020,
2220,
2020,
2020,
2020,
2010,
1,
00
#BPMCHANGE 185
00,
#MEASURE 2/4
,
#MEASURE 4/4
#GOGOSTART
3030,
3030,
3030,
3030,
1010,
1010,
5,
0080,
2020,
2220,
2020,
2220,
2020,
#GOGOEND
4004004000004004,
0040000040040000,
2020,
#GOGOSTART
1010,
1011,
1010,
1011,
#GOGOEND
1010,
1011,
1010,
2020,
#GOGOSTART
1020,
1110,
2020,
2220,
1020,
1010,
#GOGOEND
#BPMCHANGE 92.5
3030,
#GOGOSTART
#BPMCHANGE 370
1011,
1010,
1010,
1110,
1011,
1010,
1010100
#GOGOEND
4,
#END
COURSE:Normal
LEVEL:7
SCOREINIT:
SCOREDIFF:
NOTESDESIGNER1:Colin
#START
,
#GOGOSTART
3030,
3330,
3030,
3333,
1011,
1011,
1010,
5,
0080,
1010,
1000100
#GOGOEND
010000000,
#BPMCHANGE 142
2020,
2222,
2022,
2022,
2022,
2022,
2022,
2021,
2010,
1111,
1010,
1111,
1010,
1011,
1010,
1110,
1010,
#BPMCHANGE 188
1
#BPMCHANGE 185
111,
2120,
2120,
2120,
2120,
2120,
5,
,
0008,
1110,
1010,
1110,
1011,
1010,
1011,
1011,
1010,
10001011,
1011,
1111,
1010,
5,
0080,
11101110,
1111,
#BPMCHANGE 92.5
#SCROLL 1
2020,
2220,
2020,
2020,
2021,
2012,
1,
00
#BPMCHANGE 185
00,
#MEASURE 2/4
,
#MEASURE 4/4
#GOGOSTART
3030,
3330,
3033,
3333,
1011,
1111,
5,
0080,
2022,
22202020,
20222020,
20222000,
2121,
#GOGOEND
4004004000004004,
0040000040040000,
2120,
#GOGOSTART
10111010,
10111010,
1111,
10101110,
#GOGOEND
1212,
1212,
1212,
2222,
#GOGOSTART
10002022,
1112,
2020,
20212000,
10112010,
1111,
#GOGOEND
#BPMCHANGE 92.5
3030,
#GOGOSTART
#BPMCHANGE 370
10001110,
1010,
10001110,
1110,
10001110,
1010,
1110100
#GOGOEND
4,
#END
COURSE:Hard
LEVEL:8
SCOREINIT:
SCOREDIFF:
NOTESDESIGNER2:Colin
#START
0011,
#GOGOSTART
10222022,
3330,
1000001110002000,
22222011,
10112022,
1220,
1000001110002000,
6,
0080,
1010201110101011,
1030400
#GOGOEND
400000000,
#BPMCHANGE 142
20202120,
200000102200100000100200,
100200101001001100100100,
100200102200100100102200,
100100200002000000101100,
12101212,
200100201101000200202200,
20111111,
1000100500000080,
1011100020222020,
1000101110001110,
1000222022202220,
10101011,
2022200020222000,
10101011,
1110100010111000,
1000222022222000,
#BPMCHANGE 188
1
#BPMCHANGE 185
111,
1010201110102000,
1010202220102220,
1010201110102000,
1010202220102220,
1010201110102000,
3003003003003003,
0030030030030040,
0400400400400000,
1000102220100010,
2002002010001020,
20220201,
0010001011102000,
10220101,
01012022,
20110121,
01022000,
12111111,
11120111,
20210120,
2020202220001000,
1010101110111010,
22220020,
1011100010111000,
1011100010111000,
#BPMCHANGE 92.5
#SCROLL 1
200222222222,
222222500800,
200222200222,
200222500800,
100111100111,
111111500008,
,
00
#BPMCHANGE 185
00,
#MEASURE 2/4
,
#MEASURE 4/4
#GOGOSTART
10222022,
32323020,
1000201110002000,
22222211,
12112222,
12202010,
1000001110102000,
5008,
1110101022202020,
1000202220102220,
1010200011102020,
10221022,
1000201110102010,
#GOGOEND
3003003003003003,
0030030010101010,
4004004004004000,
#GOGOSTART
1010201110102011,
11201120,
1110200022202000,
1010201110102000,
#GOGOEND
222200222200,
222200222200,
200222200200,
500000000080,
#GOGOSTART
10222022,
32323020,
1000201110002000,
22222211,
12112222,
12202010,
#GOGOEND
#BPMCHANGE 92.5
1000001110002000,
#GOGOSTART
#BPMCHANGE 370
11201020,
11201020,
11201020,
11201020,
10201120,
10201120,
3030404
#GOGOEND
4,
#END
COURSE:Oni
LEVEL:10
BALLOON:6
SCOREINIT:
SCOREDIFF:
NOTESDESIGNER3:Colin
#START
0022,
#GOGOSTART
1000112211112212,
1010112211221111,
2010222210112212,
1122201011112222,
1111222211112222,
1111222211112222,
100100000100200000100100200020002000100010001000,
2111211121112111,
2111211121112111,
2111211121112111,
2020201
#GOGOEND
200000000,
#BPMCHANGE 142
100200100200101101201202,
100200101200101200101200,
100201101201001101201202,
100200101202101202101200,
101202102201001202202202,
101201101202101202101202,
100201101201001101101202,
100202101201101202101200,
100010200020100010200010000100100100000100100100,
#SCROLL 2
20200010221122102011202010102000,
10200010221122102011101020101010,
20100010221122102011112010101010,
20102010221122102011201020111111,
20202010221122102011202010102010,
20102010221122102011101020101010,
20101010221122102011201020101010,
20101010221122102211111120112222,
#BPMCHANGE 188
#SCROLL 1
1
#BPMCHANGE 185
111,
2220112222221122,
1202211122221111,
1111222211011122,
1122221121121102,
1111112222221122,
1121212022021122,
2211122022212110,
1220222122111222,
1000001120101011,
2011201020112020,
1011201120221012,
1021021020112022,
1010201120101012,
1021012020112222,
1022201120221011,
2021012022112122,
1022112210221212,
1022112210111212,
1022112211221122,
1022102210221022,
1022111120121222,
1020112210221111,
2222222222222222,
2222222222222022,
#BPMCHANGE 92.5
508111508111,
222222500801,
100212508111,
508112100222,
#SCROLL 2
122222101020122222101020,
100020201010200010002000101020201020122212221222,
#SCROLL 1
100121100211,
70
#BPMCHANGE 185
80,
#MEASURE 2/4
22,
#MEASURE 4/4
#GOGOSTART
1011202211112011,
2011202211112120,
2011202211112120,
2011221020112011,
1012102211221010,
2011201120112222,
1111222211112222,
1111222211112022,
1111222211221122,
1111222211112222,
1122111122212121,
2021212222111110,
2111102022211222,
#GOGOEND
1222202211221022,
0221222210212122,
1111021121011111,
#GOGOSTART
2112111121111222,
2211211122121221,
1101111122111122,
2121122221012011,
#GOGOEND
201010201010201010200100,
201010201010201010200100,
200000100100200020002000100000100100200020002000,
111111222222111111222222,
#GOGOSTART
#SCROLL 1.5
1022112010210122,
1022112210221122,
1022112210121122,
1022102010212022,
1111222211112222,
100100100100200200200200202020202020100010001000,
#GOGOEND
#BPMCHANGE 92.5
#SCROLL 1
6000801130004000,
#GOGOSTART
#BPMCHANGE 370
11221122,
11112211,
22221111,
22111222,
11221122,
11112210,
3040303
#GOGOEND
4,
#END