Files
Colins_Custom_Charts/03 VOCALOID/Kitty/Kitty.tja
T
2025-12-20 15:52:49 -05:00

335 lines
3.6 KiB
Plaintext
Raw Blame History

This file contains ambiguous Unicode characters
This file contains Unicode characters that might be confused with other characters. If you think that this is intentional, you can safely ignore this warning. Use the Escape button to reveal them.
TITLE:Kitty
SUBTITLE:--tsumiki feat. Nightcord at 25:00 / Project SEKAI COLORFUL STAGE!
TITLEJA:キティ
SUBTITLEJA:ツミキ feat. 25時、ナイトコードで。 「プロジェクトセカイ カラフルステージ!」より
BGMOVIE:Kitty.mp4
PREIMAGE:Kitty.png
BPM:145
WAVE:Kitty.ogg
OFFSET:-0.382
DEMOSTART:67.416
MAKER:Colin
COURSE:Easy
LEVEL:4
SCOREINIT:
SCOREDIFF:
NOTESDESIGNER0:Colin
#START
,
1,
1,
1,
1,
1,
1,
1010,
1,
#GOGOSTART
2020,
2,
2020,
2,
2020,
2,
2020,
2,
#GOGOEND
1010,
5080,
1010,
5080,
1010,
5080,
2020,
2,
1010,
1,
1110,
1010,
1010,
1010,
1111,
1,
2020,
2,
2020,
2,
2020,
2,
4040,
4,
#GOGOSTART
3030,
3,
3333,
3,
1010,
1110,
2020,
2020,
3030,
3,
3333,
3,
1010,
1110,
2020,
2020,
#GOGOEND
2,
,
1010,
1,
1110,
1,
1010,
1,
1010,
1,
#END
COURSE:Normal
LEVEL:6
SCOREINIT:
SCOREDIFF:
NOTESDESIGNER1:Colin
#START
,
1010,
1,
1010,
1,
1010,
1,
1011,
1,
#GOGOSTART
20222020,
2020,
20222020,
2020,
20222020,
2020,
20222020,
2020,
#GOGOEND
1110,
5080,
1110,
5080,
1110,
5080,
2220,
2220,
1110,
11101000,
1110,
11101000,
1110,
11101000,
11101110,
1111,
2022,
2,
2220,
2020,
2220,
2020,
4040,
4,
#GOGOSTART
3333,
33330300,
3333,
30002220,
1212,
10121020,
20202022,
2022,
30333033,
33330300,
3333,
30001110,
1110,
1110,
20222022,
2022,
#GOGOEND
2,
,
10111000,
10111010,
1110,
10111000,
1110,
1110,
10111000,
1,
#END
COURSE:Hard
LEVEL:7
SCOREINIT:
SCOREDIFF:
NOTESDESIGNER2:Colin
#START
,
2000002011010105,
00811111,
11111115,
0080000011010202,
0000001011020202,
21110111,
2220222022202220,
2,
#GOGOSTART
1010110110110000,
11111100,
1010110110110000,
11111100,
1010110110110000,
11111100,
1010110110110000,
11111100,
#GOGOEND
2000200022202001,
0110000000000011,
1011101110111000,
2020200200000000,
2022200022202002,
05080000,
1011100010111000,
1,
1011000010000000,
1011000010000000,
1011000010110000,
2222,
2022000020000000,
2022000020000000,
1010,
1011100011101000,
1110,
11111020,
11110222,
20202222,
2000200020020000,
2020202020020000,
3333,
3,
#GOGOSTART
1010201110102020,
10210222,
3333,
30001222,
1000222010001010,
01021110,
22202222,
1011100010101010,
1010201110102020,
10210222,
3333,
30001222,
1000222010001010,
11121010,
22222222,
1011100010101010,
#GOGOEND
2,
0200,
1000101110001000,
1000101110001000,
1000101110000000,
1000000010001011,
1110,
1110,
1111,
40004004,
#END
COURSE:Oni
LEVEL:9
SCOREINIT:
SCOREDIFF:
NOTESDESIGNER3:Colin
#START
0000000022010102,
1011201012010102,
1120111010201110,
2011202011102022,
1011202212022212,
1011201011020202,
1011101010102210,
1201012011020212,
1022111112112222,
#GOGOSTART
1012021120221121,
0121012211221011,
2212012211120121,
0112021221012121,
1012020120211121,
0121220110221122,
2022212211120121,
0112221222112111,
#GOGOEND
1011201211112121,
1121202122102122,
1021222112112111,
2121201122112112,
1011201211212122,
1121202122102202,
1021202112102101,
1221112121212122,
1011221211102111,
2121222122102112,
1021222112112111,
1121102122112112,
1012221212102111,
2121222122102102,
1021202112102101,
1222111121212020,
#SCROLL 0.8
1010202100102022,
1011202101102120,
1020202101102021,
1020202111212010,
1010202010102022,
11221122,
#SCROLL 0.9
1022102010201012,
#SCROLL 1
101010200200100100100000100100100100200000200000,
#GOGOSTART
4010212011202022,
1110212212012120,
1120112211221120,
1120212212012122,
1011202210102022,
1120202011201120,
1020212011202120,
1011202211202121,
2010212011202022,
1120212212012120,
1120212221122120,
1120212212012122,
1022112211202122,
1120212121012120,
1120211012102122,
1201202212121222,
#GOGOEND
1020120210202020,
0000300022222222,
1011210120220112,
0221102101220110,
1011210120120202,
0211112101221110,
1012021011120111,
200000101010200000100100000100200000200200100000,
1022102010221022,
1122111122112220,
#END