Files
Colins_Custom_Charts/03 VOCALOID/Koala/Koala.tja
T
2025-12-20 15:52:49 -05:00

589 lines
4.6 KiB
Plaintext

TITLE:Koala
SUBTITLE:--Will Stetson feat. VY1
TITLEJA:コアラ
SUBTITLEJA:Will Stetson feat. VY1
PREIMAGE:Koala.jpg
BGMOVIE:Koala.mp4
WAVE:Koala.ogg
BPM:200
OFFSET:-1.574
DEMOSTART:50.174
MAKER:Colin
COURSE:Easy
LEVEL:4
SCOREINIT:
SCOREDIFF:
NOTESDESIGNER0:Colin
#START
2220,
#GOGOSTART
1010,
1110,
1010,
1110,
1010,
1110,
1010,
1110,
2020,
2220,
2020,
2220,
2020,
2220,
200200
#GOGOEND
20,
,
1020,
1,
1020,
1,
1020,
1,
2020,
2,
1,
1010,
1,
2020,
2010,
1,
1010,
1,
1020,
1,
1020,
1,
1020,
1020,
1,
,
#GOGOSTART
1020,
1,
1110,
2,
2020,
2,
1010,
1,
2020,
2,
1010,
1,
2020,
2010,
1,
#GOGOEND
3330,
#GOGOSTART
1020,
1,
2020,
2,
1110,
2220,
1010,
1,
1010,
1,
1020,
1,
1210,
1210,
2220,
#GOGOEND
1010,
2,
2020,
2,
1,
2,
2,
2020,
2,
1010,
1,
1010,
1,
2,
20000005,
00000008,
,
200000000002,
,
200000000002,
,
200000000002,
,
200000000002,
,
000200000000000000000020,
,
100000000002,
,
100000000002,
,
5,
0800,
,
,
#GOGOSTART
1210,
1010,
1210,
1010,
1210,
1110,
2020,
2,
1210,
1,
1210,
1,
2020,
2220,
5,
,
#GOGOEND
8,
3,
30030030,
#END
COURSE:Normal
LEVEL:5
SCOREINIT:
SCOREDIFF:
NOTESDESIGNER1:Colin
#START
2220,
#GOGOSTART
1010,
10101110,
1010,
10101110,
1010,
10101110,
1010,
10101110,
2020,
20202220,
2020,
20202220,
2020,
20202220,
200200
#GOGOEND
20,
,
1120,
1020,
1120,
1020,
1120,
1020,
2022,
2020,
1020,
1110,
1020,
2120,
2210,
1020,
1110,
1,
1020,
1120,
1020,
1120,
1020,
1020,
1111,
1,
#GOGOSTART
1121,
2010,
1110,
2020,
2220,
2020,
1110,
1,
2220,
2,
1110,
1,
2022,
2010,
1,
#GOGOEND
3330,
#GOGOSTART
1020,
1110,
2020,
20222020,
1110,
2220,
1110,
1,
1011,
1,
1120,
1010,
1210,
1210,
2220,
#GOGOEND
1010,
2,
2022,
2020,
1020,
2,
2022,
2020,
2,
1011,
1010,
1011,
1,
2,
20000005,
00000008,
,
200000000002,
,
200000000002,
,
200000000002,
,
200000000002,
,
000200000000000000000020,
,
100000000002,
,
100000000002,
,
5,
0800,
,
,
#GOGOSTART
10201011,
1010,
10201011,
1010,
1210,
10101022,
2022,
2,
10201011,
1011,
10201022,
1020,
20002022,
2220,
5,
,
#GOGOEND
8,
3,
30030030,
#END
COURSE:Hard
LEVEL:5
SCOREINIT:
SCOREDIFF:
NOTESDESIGNER2:Colin
#START
2220,
#GOGOSTART
10120020,
10120020,
10120020,
10120020,
10120021,
01010120,
10001021,
00220120,
10120022,
10120010,
10120020,
10120020,
10120020,
10120020,
300400
#GOGOEND
30,
,
1122,
22220000,
1212,
11010222,
20112022,
20120111,
1122,
12020120,
1222,
10110020,
1212,
11020112,
1212,
12220211,
2121,
12020120,
20120010,
20210120,
1212,
20120111,
2121,
2121,
5,
8,
#GOGOSTART
10201120,
20120110,
2121,
20120110,
20221020,
20101120,
20211020,
20120111,
20222020,
10120110,
20222020,
20120020,
10221010,
20202110,
10210120,
#GOGOEND
4440,
#GOGOSTART
2101,
2101,
2222,
10011111,
20012222,
2112,
10011112,
00022222,
20202220,
11020120,
10201120,
21010120,
11020200,
21010120,
10210120,
#GOGOEND
3333,
3122,
11020222,
20210120,
10210120,
10202202,
01221211,
20201201,
10111122,
2211,
22020101,
10202205,
0008,
2222,
20222205,
00000008,
,
200000000002,
,
200000000002,
,
200000000002,
,
200000000002,
,
000200000000000000000020,
,
100000000002,
,
100000000002,
,
5,
0800,
,
,
#GOGOSTART
10201120,
20120110,
2121,
20120110,
20221020,
20101120,
20211020,
20120111,
20222202,
10120110,
20222020,
20120020,
10221010,
20202110,
10210122,
01212111,
#GOGOEND
4,
4,
40040040,
#END
COURSE:Oni
LEVEL:7
SCOREINIT:
SCOREDIFF:
NOTESDESIGNER3:Colin
#START
20202121,
#GOGOSTART
11102021,
20120210,
11102021,
20120210,
11102022,
0020001000102011,
20201021,
0010202210102020,
11102021,
20120210,
11102021,
20120210,
11102021,
21021120,
302302
#GOGOEND
30,
02222222,
1000101020112010,
21210212,
1221,
21022221,
20112022,
21220121,
1122,
12122211,
10212020,
21210111,
1211,
11011222,
10201120,
12220211,
2121,
1020102000102011,
2010201120102011,
20221122,
1010201120102011,
20111121,
20112121,
22012211,
4444,
40001122,
#GOGOSTART
40221010,
20120120,
20211021,
20120210,
20221020,
20101120,
20221020,
2000102010101011,
20212020,
20121110,
20221020,
20120210,
10210110,
20201110,
20120120,
#GOGOEND
3000301110101010,
#GOGOSTART
2000102000201011,
20120211,
20111020,
20122211,
20122212,
10120120,
10221112,
0010201110101010,
20212220,
11210120,
10201120,
11210120,
21020201,
21010120,
10210120,
#GOGOEND
30303231,
20122020,
11210222,
20210120,
10210120,
10202212,
01221211,
20201201,
02111222,
20201120,
12020101,
10212202,
01212022,
1122,
10221202,
22021114,
,
200101201002,
000000000202,
200002202002,
000102202100,
200202102002,
002001002202,
100201102001,
000102202202,
102002201002,
001201001202,
102202202002,
001202101102,
200101101002,
000102202200,
5,
0000800000000011,
2,
20202122,
#GOGOSTART
3000201120102011,
20222211,
2000201020102011,
20121122,
20121120,
10221020,
20122020,
20221111,
20222222,
20112020,
10112120,
20122221,
10221010,
21201210,
20120212,
01212111,
#GOGOEND
20202021,
20202121,
40040030,
#END