Files
Colins_Custom_Charts/03 VOCALOID/Lower/Lower.tja
T
2025-12-20 15:52:49 -05:00

322 lines
3.5 KiB
Plaintext

TITLE:Lower
SUBTITLE:--nulut feat. flower / Project SEKAI COLORFUL STAGE!
TITLEJA:ロウワー
SUBTITLEJA:ぬゆり feat. flower「プロジェクトセカイ カラフルステージ!」より
BGMOVIE:Lower.mp4
PREIMAGE:Lower.png
BPM:132
OFFSET:-0.038
DEMOSTART:73.674
WAVE:Lower.ogg
MAKER:Colin
COURSE:Oni
LEVEL:9
BALLOON:
SCOREINIT:
SCOREDIFF:
NOTESDESIGNER3:Colin
#START
,
12121211,
21212222,
12121211,
21212222,
12122211,
22221122,
12121212,
22221112,
#GOGOSTART
#SCROLL 1.5
100202101201001202100200,
100200102202101202202202,
100202101201001202100200,
100202101202100202112202,
100202101201001202100200,
100200102202101202202202,
100202101201001202100200,
30303031,
#GOGOEND
200200100200202102001201,
100100100200201201002202,
100200101200101202101201,
100200101201101202101202,
200200100202101201101202,
100200100200101202101201,
100200101200102102101202,
200200200200200202102100,
100200101200102102001200,
100200100202101201001202,
100202100200102102101202,
101202102101101202102202,
100200100202202202101202,
100200100200101102102202,
100200100200101201002102,
100000200000100000200000100000200200100010100020,
100200100200100201002001,
000100202002100200101201,
100200101202100200101201,
100202101200100202100200,
100200100200101202100200,
100200101202100200101201,
101200100201201102100222,
100000200020100000100000100010000200000020200020,
#GOGOSTART
100100200200102101002102,
100100200200100201002101,
200200100101000200100200,
100202101200101202102201,
200100200202101201001201,
200100201202100200200
#GOGOEND
400,
02122214,
01121212,
#GOGOSTART
200202101201001202100200,
100200102202101202202202,
100202101201001202100200,
100202101202100202112202,
100202101201001202100200,
100200102202101202202202,
100202101201001202100200,
3333,
#GOGOEND
3,
#END
COURSE:Hard
LEVEL:4
BALLOON:
SCOREINIT:
SCOREDIFF:
NOTESDESIGNER2:Colin
#START
,
20202222,
20202222,
20202222,
20202222,
20202022,
20202222,
20202222,
22222000,
#SCROLL 1.5
#GOGOSTART
100200100001001000100200,
12101212,
100200100002002000200200,
12102212,
100100200001001000100200,
12101222,
12102212,
3333,
#GOGOEND
11101020,
12102020,
11101020,
12102020,
12102010,
10201210,
10101210,
22222222,
11101020,
12102020,
11101020,
5008,
11101020,
12102020,
11101020,
10222222,
100000200000100002002001,
000200102001000000100100,
100000100100100000100005,
00802222,
10201202,
1111,
11111111,
50080000,
#GOGOSTART
300300300300000202000200,
300300300300000202000200,
400400300003000000300300,
600000800000100002000200,
300300300300000202000200,
3333000
#GOGOEND
4,
00000004,
0033,
#GOGOSTART
100200100001001000100200,
12101012,
100200100001001000100200,
10101012,
100200100001001000100200,
12101012,
100200100001001000100200,
3333,
#GOGOEND
3,
#END
COURSE:Normal
LEVEL:3
BALLOON:
SCOREINIT:
SCOREDIFF:
NOTESDESIGNER1:Colin
#START
,
2220,
2020,
2220,
2020,
2220,
2020,
2220,
2020,
#SCROLL 1.5
#GOGOSTART
1011,
1010,
1011,
1010,
1011,
1010,
1011,
1010,
#GOGOEND
1020,
1,
1020,
1,
1020,
1,
1020,
1,
2020,
2,
2020,
2,
2020,
2,
2020,
2,
1110,
1010,
5,
0800,
2220,
2020,
10111010,
1,
#GOGOSTART
3220,
3230,
3230,
60080000,
3220,
3020200
#GOGOEND
3,
00002003,
0032,
#GOGOSTART
1012,
1020,
1012,
1020,
1011,
1020,
1012,
1111,
#GOGOEND
1,
#END
COURSE:Easy
LEVEL:2
BALLOON:
SCOREINIT:
SCOREDIFF:
NOTESDESIGNER0:Colin
#START
,
2,
2,
2,
2,
2,
2,
2,
2,
#SCROLL 1.5
#GOGOSTART
1010,
1,
1010,
1,
1010,
1,
1010,
1,
#GOGOEND
1,
1,
1,
1,
1,
1,
1,
,
2,
2,
2,
2,
2,
2,
2,
,
1010,
1,
5,
0800,
2020,
2,
1111,
1,
#GOGOSTART
3020,
3030,
3030,
60080000,
3020,
3000000
#GOGOEND
3,
00000003,
0030,
#GOGOSTART
1010,
1,
1010,
1,
1010,
1,
1010,
1111,
#GOGOEND
1,
#END