Files
Colins_Custom_Charts/03 VOCALOID/Mesmerizer/Mesmerizer.tja
T
2025-06-11 19:53:16 -04:00

3306 lines
32 KiB
Plaintext

TITLE:Mesmerizer
TITLEJA:メズマライザー
SUBTITLE:--32ki ft. Hatsune Miku & Teto Kasane
SUBTITLEJA:サツキ ft. 初音ミク、重音テト
BPM:185
OFFSET:-1.327
DEMOSTART:45.435
WAVE:Mesmerizer.ogg
BGMOVIE:Mesmerizer.mp4
PREIMAGE:Mesmerizer.png
MAKER:Colin
COURSE:Easy
LEVEL:4
SCOREINIT:
SCOREDIFF:
#START
,
,
#GOGOSTART
3010,
1110,
1010,
1,
2020,
2220,
2020,
2,
#GOGOEND
3,
1,
1,
,
2,
2,
2,
,
1010,
1110,
1010,
1110,
2020,
2,
2020,
2220,
4,
2020,
2,
2020,
2,
1010,
1010,
,
#GOGOSTART
3030,
3,
1010,
5080,
1010,
1110,
1010,
1,
2020,
2220,
2020,
5080,
1010,
1110,
1010,
1,
#GOGOEND
3,
,
#GOGOSTART
2020,
2220,
2020,
2,
1010,
1110,
1010,
1,
#GOGOEND
4,
2,
2,
2,
2,
2,
2,
200000
#SCROLL 1.4
000
#SCROLL 2
0
#SCROLL 1
00,
#MEASURE 1/20
#SCROLL 1
1,
#SCROLL 1.5
000
#SCROLL 1
0000,
#SCROLL 3
0
#SCROLL 1
000000,
#SCROLL 2
0
#SCROLL 1
0000000,
#SCROLL 1
0,
#SCROLL 1
000
#SCROLL 1
0000,
#SCROLL 3
0
#SCROLL 1
000000,
#SCROLL 2
0
#SCROLL 1
0000000,
#SCROLL 1
0,
#SCROLL 1.5
000
#SCROLL 1
0000,
#SCROLL 1
1
#SCROLL 1
000000,
#SCROLL 2
0
#SCROLL 1
0000000,
#SCROLL 1
0,
#SCROLL 1.5
0
#SCROLL 1
00,
#SCROLL 3
0
#SCROLL 1
000000,
#SCROLL 1
0
#SCROLL 1
0000000,
#SCROLL 1
0,
#SCROLL 1.5
000
#SCROLL 1
0000,
#SCROLL 3
0
#SCROLL 1
000000,
#SCROLL 2
0
#SCROLL 1
0000000,
#SCROLL 1
1,
#SCROLL 1.5
000
#SCROLL 1
0000,
#SCROLL 3
0
#SCROLL 1
000000,
#SCROLL 2
0
#SCROLL 1
0000000,
#SCROLL 1
0,
#SCROLL 1
000
#SCROLL 1
0000,
#SCROLL 3
0
#SCROLL 1
000000,
#SCROLL 2
0
#SCROLL 1
0000000,
#SCROLL 1
0,
#SCROLL 1.5
000
#SCROLL 1
0000,
#SCROLL 1
0
#SCROLL 1
000000,
#SCROLL 2
0
#SCROLL 1
0000000,
#SCROLL 1
0,
#SCROLL 1.5
0
#SCROLL 1
00,
#SCROLL 3
0
#SCROLL 1
000000,
#SCROLL 1
0
#SCROLL 1
0000000,
#SCROLL 1
0,
#SCROLL 0.988372
000
#SCROLL 0.983389
0000,
#SCROLL 0.976744
0000
#SCROLL 0.975083
00000000000000000
#SCROLL 0.968023
0000000,
#SCROLL 0.965116
0
#SCROLL 0.963663
0000000,
#SCROLL 0.953488
0,
#SCROLL 0.94186
000
#SCROLL 0.936877
0000,
#SCROLL 0.930233
0
#SCROLL 0.928571
000000,
#SCROLL 0.918605
0
#SCROLL 0.917151
0000000,
#SCROLL 0.906977
0,
#SCROLL 0.895349
000
#SCROLL 0.890365
0000,
#SCROLL 0.883721
0
#SCROLL 0.88206
000000,
#SCROLL 0.872093
0
#SCROLL 0.87064
0000000,
#SCROLL 0.860465
0,
#SCROLL 0.848837
000
#SCROLL 0.843854
0000,
#SCROLL 0.837209
0
#SCROLL 0.835548
000000,
#SCROLL 0.825581
0
#SCROLL 0.824128
0000000,
#SCROLL 0.813953
0,
#SCROLL 0.802326
0
#SCROLL 0.804848
00,
#SCROLL 0.809892
0
#SCROLL 0.810973
000000,
#SCROLL 0.817459
0
#SCROLL 0.818404
0000000,
#SCROLL 0.825025
0,
#SCROLL 0.832592
000
#SCROLL 0.835834
0000,
#SCROLL 0.840158
0
#SCROLL 0.841239
000000,
#SCROLL 0.847724
0
#SCROLL 0.84867
0000000,
#SCROLL 0.855291
0,
#SCROLL 0.862857
000
#SCROLL 0.8661
0000,
#SCROLL 0.870424
0
#SCROLL 0.871505
000000,
#SCROLL 0.87799
0
#SCROLL 0.878936
0000000,
,
,
#SCROLL 0.90069
0
#SCROLL 0.901771
000000,
#SCROLL 0.908256
0
#SCROLL 0.909202
0000000,
#SCROLL 0.915823
0,
#SCROLL 0.923389
000
#SCROLL 0.926632
0000,
,
#SCROLL 0.938522
0
#SCROLL 0.939468
0000000,
#SCROLL 0.946089
0,
#SCROLL 0.953655
000
#SCROLL 0.956898
0000,
#SCROLL 0.961222
0
#SCROLL 0.962303
000000,
,
#SCROLL 0.976355
0,
#SCROLL 0.983921
000
#SCROLL 0.987164
0000,
#SCROLL 0.991488
0
#SCROLL 0.992569
000000,
#SCROLL 0.999054
0
#SCROLL 1
0000000,
#SCROLL 1
1,
#SCROLL 1.5
000
#SCROLL 1
0000,
#SCROLL 3
0
#SCROLL 1
000000,
#SCROLL 2
0
#SCROLL 1
0000000,
#SCROLL 1
0,
000
#SCROLL 1
0000,
#SCROLL 3
0
#SCROLL 1
000000,
#SCROLL 2
0
#SCROLL 1
0000000,
#SCROLL 1
0,
#SCROLL 1.5
000
#SCROLL 1
0000,
1,
#SCROLL 2
0
#SCROLL 1
0000000,
#SCROLL 1
0,
#SCROLL 1.5
0
#SCROLL 1
00,
#SCROLL 3
0
#SCROLL 1
000000,
,
#SCROLL 1
0,
#SCROLL 1.5
000
#SCROLL 1
0000,
#SCROLL 3
0
#SCROLL 1
000000,
#SCROLL 2
0
#SCROLL 1
0000000,
#SCROLL 1
1,
#SCROLL 1.5
000
#SCROLL 1
0000,
#SCROLL 3
0
#SCROLL 1
000000,
#SCROLL 2
0
#SCROLL 1
0000000,
#SCROLL 1
0,
#SCROLL 1
000
#SCROLL 1
0000,
#SCROLL 3
0
#SCROLL 1
000000,
#SCROLL 2
0
#SCROLL 1
0000000,
#SCROLL 1
0,
#SCROLL 1.5
000
#SCROLL 1
0000,
#SCROLL 1
0
#SCROLL 1
000000,
#SCROLL 2
0
#SCROLL 1
0000000,
#SCROLL 1
0,
#SCROLL 1.5
0
#SCROLL 1
00,
#SCROLL 3
0
#SCROLL 1
000000,
#SCROLL 1
0
#SCROLL 1
0000000,
#SCROLL 1
0,
#SCROLL 1.5
000
#SCROLL 1
0000,
#SCROLL 3
0
#SCROLL 1
000000,
#SCROLL 2
0
#SCROLL 1
0000000,
#MEASURE 4/4
3,
4,
2,
2,
2020,
2,
2,
2,
2020,
2,
1010,
1110,
1010,
1,
1010,
1110,
1010,
1,
#MEASURE 8/4
30,
#MEASURE 4/4
#GOGOSTART
4020,
2220,
2020,
2220,
2020,
2,
1010,
1110,
1010,
1110,
1010,
1010,
1010,
1111,
#GOGOEND
1,
,
#GOGOSTART
3010,
1110,
1010,
1,
2020,
2220,
2,
1010,
#GOGOEND
3,
#END
COURSE:Normal
LEVEL:5
SCOREINIT:
SCOREDIFF:
#START
,
,
#GOGOSTART
30001011,
1110,
1010,
1110,
20002022,
2220,
2020,
2220,
#GOGOEND
3001,
1,
1001,
1,
2,
2002,
2,
,
10001011,
1110,
1011,
10111000,
2020,
2220,
2020,
20202220,
4,
2022,
2,
2022,
2,
1010,
1111,
,
#GOGOSTART
3030,
3110,
10001011,
5080,
10001011,
1110,
1010,
1,
20002022,
2220,
2022,
5080,
10001011,
1110,
1010,
1111,
#GOGOEND
3,
,
#GOGOSTART
20002022,
2220,
2022,
2,
10001011,
1110,
1010,
1,
#GOGOEND
4020,
2,
2020,
2020,
2,
2020,
2,
200000
#SCROLL 1.4
000
#SCROLL 2
0
#SCROLL 1
00,
#MEASURE 1/20
#SCROLL 1
1,
#SCROLL 1.5
000
#SCROLL 1
0000,
#SCROLL 3
0
#SCROLL 1
000000,
#SCROLL 2
0
#SCROLL 1
0000000,
#SCROLL 1
0,
#SCROLL 1
000
#SCROLL 1
0000,
#SCROLL 3
0
#SCROLL 1
000000,
#SCROLL 2
0
#SCROLL 1
0000000,
#SCROLL 1
0,
#SCROLL 1.5
000
#SCROLL 1
0000,
#SCROLL 1
1
#SCROLL 1
000000,
#SCROLL 2
0
#SCROLL 1
0000000,
#SCROLL 1
0,
#SCROLL 1.5
0
#SCROLL 1
00,
#SCROLL 3
0
#SCROLL 1
000000,
#SCROLL 1
0
#SCROLL 1
0000000,
#SCROLL 1
0,
#SCROLL 1.5
000
#SCROLL 1
0000,
#SCROLL 3
0
#SCROLL 1
000000,
#SCROLL 2
0
#SCROLL 1
0000000,
#SCROLL 1
1,
#SCROLL 1.5
000
#SCROLL 1
0000,
#SCROLL 3
0
#SCROLL 1
000000,
#SCROLL 2
0
#SCROLL 1
0000000,
#SCROLL 1
0,
#SCROLL 1
000
#SCROLL 1
0000,
#SCROLL 3
0
#SCROLL 1
000000,
#SCROLL 2
0
#SCROLL 1
0000000,
#SCROLL 1
0,
#SCROLL 1.5
000
#SCROLL 1
0000,
#SCROLL 1
1
#SCROLL 1
000000,
#SCROLL 2
0
#SCROLL 1
0000000,
#SCROLL 1
0,
#SCROLL 1.5
0
#SCROLL 1
00,
#SCROLL 3
0
#SCROLL 1
000000,
#SCROLL 1
1
#SCROLL 1
0000000,
#SCROLL 1
0,
#SCROLL 0.988372
000
#SCROLL 0.983389
0000,
#SCROLL 0.976744
0000
#SCROLL 0.975083
00000000000000000
#SCROLL 0.968023
0000000,
#SCROLL 0.965116
0
#SCROLL 0.963663
0000000,
#SCROLL 0.953488
1,
#SCROLL 0.94186
000
#SCROLL 0.936877
0000,
#SCROLL 0.930233
0
#SCROLL 0.928571
000000,
#SCROLL 0.918605
0
#SCROLL 0.917151
0000000,
#SCROLL 0.906977
0,
#SCROLL 0.895349
000
#SCROLL 0.890365
0000,
#SCROLL 0.883721
0
#SCROLL 0.88206
000000,
#SCROLL 0.872093
0
#SCROLL 0.87064
0000000,
#SCROLL 0.860465
0,
#SCROLL 0.848837
000
#SCROLL 0.843854
0000,
#SCROLL 0.837209
1
#SCROLL 0.835548
000000,
#SCROLL 0.825581
0
#SCROLL 0.824128
0000000,
#SCROLL 0.813953
0,
#SCROLL 0.802326
0
#SCROLL 0.804848
00,
#SCROLL 0.809892
0
#SCROLL 0.810973
000000,
#SCROLL 0.817459
0
#SCROLL 0.818404
0000000,
#SCROLL 0.825025
0,
#SCROLL 0.832592
000
#SCROLL 0.835834
0000,
#SCROLL 0.840158
0
#SCROLL 0.841239
000000,
#SCROLL 0.847724
0
#SCROLL 0.84867
0000000,
#SCROLL 0.855291
1,
#SCROLL 0.862857
000
#SCROLL 0.8661
0000,
#SCROLL 0.870424
0
#SCROLL 0.871505
000000,
#SCROLL 0.87799
0
#SCROLL 0.878936
0000000,
,
,
#SCROLL 0.90069
0
#SCROLL 0.901771
000000,
#SCROLL 0.908256
0
#SCROLL 0.909202
0000000,
#SCROLL 0.915823
0,
#SCROLL 0.923389
000
#SCROLL 0.926632
0000,
,
#SCROLL 0.938522
0
#SCROLL 0.939468
0000000,
#SCROLL 0.946089
0,
#SCROLL 0.953655
000
#SCROLL 0.956898
0000,
#SCROLL 0.961222
0
#SCROLL 0.962303
000000,
,
#SCROLL 0.976355
0,
#SCROLL 0.983921
000
#SCROLL 0.987164
0000,
#SCROLL 0.991488
0
#SCROLL 0.992569
000000,
#SCROLL 0.999054
0
#SCROLL 1
0000000,
#SCROLL 1
1,
#SCROLL 1.5
000
#SCROLL 1
0000,
#SCROLL 3
0
#SCROLL 1
000000,
#SCROLL 2
0
#SCROLL 1
0000000,
#SCROLL 1
0,
000
#SCROLL 1
0000,
#SCROLL 3
0
#SCROLL 1
000000,
#SCROLL 2
0
#SCROLL 1
0000000,
#SCROLL 1
0,
#SCROLL 1.5
000
#SCROLL 1
0000,
1,
#SCROLL 2
0
#SCROLL 1
0000000,
#SCROLL 1
0,
#SCROLL 1.5
0
#SCROLL 1
00,
#SCROLL 3
0
#SCROLL 1
000000,
,
#SCROLL 1
0,
#SCROLL 1.5
000
#SCROLL 1
0000,
#SCROLL 3
0
#SCROLL 1
000000,
#SCROLL 2
0
#SCROLL 1
0000000,
#SCROLL 1
1,
#SCROLL 1.5
000
#SCROLL 1
0000,
#SCROLL 3
0
#SCROLL 1
000000,
#SCROLL 2
0
#SCROLL 1
0000000,
#SCROLL 1
0,
#SCROLL 1
000
#SCROLL 1
0000,
#SCROLL 3
0
#SCROLL 1
000000,
#SCROLL 2
0
#SCROLL 1
0000000,
#SCROLL 1
0,
#SCROLL 1.5
000
#SCROLL 1
0000,
#SCROLL 1
1
#SCROLL 1
000000,
#SCROLL 2
0
#SCROLL 1
0000000,
#SCROLL 1
0,
#SCROLL 1.5
0
#SCROLL 1
00,
#SCROLL 3
0
#SCROLL 1
000000,
#SCROLL 1
1
#SCROLL 1
0000000,
#SCROLL 1
0,
#SCROLL 1.5
000
#SCROLL 1
0000,
#SCROLL 3
0
#SCROLL 1
000000,
#SCROLL 2
0
#SCROLL 1
0000000,
#MEASURE 4/4
3,
1,
1,
2020,
2022,
2,
2,
2,
2020,
2220,
1010,
10111010,
1010,
1,
1010,
1110,
1010,
1110,
#MEASURE 8/4
30,
#MEASURE 4/4
#GOGOSTART
40002022,
2220,
2020,
2220,
20002022,
2220,
10001011,
1110,
1010,
1110,
10001011,
1110,
1010,
10101110,
#GOGOEND
1,
,
#GOGOSTART
30001011,
1110,
1011,
1,
20002022,
2220,
2020,
1010,
#GOGOEND
3,
#END
COURSE:Hard
LEVEL:5
SCOREINIT:
SCOREDIFF:
#START
,
,
#GOGOSTART
1002002010000020,
1002002010020020,
10201120,
1002001000102020,
1002002010000020,
1000202010020020,
10201120,
1020201110102020,
#GOGOEND
10200120,
10201122,
10200122,
1111,
1000200200001020,
01102212,
10201123,
00030000,
30201122,
10210122,
1022202010102020,
10210122,
10221122,
10210122,
10201121,
01201122,
10102001,
1120,
10201002,
2120,
10201120,
10201111,
22222222,
1,
#GOGOSTART
30201122,
10201122,
12121205,
00008011,
10121012,
10201022,
10201102,
01222222,
10201022,
10201022,
12121205,
00008021,
20111011,
10201022,
12112202,
02121212,
#GOGOEND
3,
,
#GOGOSTART
1002002010000020,
1002002010020020,
10201120,
1002001000102020,
1002002010000020,
1000202010020020,
10201120,
1020201110102020,
#GOGOEND
10200120,
1211,
10200120,
1212,
10200120,
1212,
10200120,
100200
#SCROLL 1.4
300
#SCROLL 2
3
#SCROLL 1
00,
#MEASURE 1/20
#SCROLL 1
3,
#SCROLL 1.5
000
#SCROLL 1
0000,
#SCROLL 3
0
#SCROLL 1
000000,
#SCROLL 2
0
#SCROLL 1
0000000,
#SCROLL 1
0,
#SCROLL 1
200
#SCROLL 1
0000,
#SCROLL 3
0
#SCROLL 1
000000,
#SCROLL 2
0
#SCROLL 1
0000000,
#SCROLL 1
0,
#SCROLL 1.5
000
#SCROLL 1
0000,
#SCROLL 1
1
#SCROLL 1
000000,
#SCROLL 2
0
#SCROLL 1
0000000,
#SCROLL 1
0,
#SCROLL 1.5
0
#SCROLL 1
00,
#SCROLL 3
0
#SCROLL 1
000000,
#SCROLL 1
2
#SCROLL 1
0000000,
#SCROLL 1
0,
#SCROLL 1.5
000
#SCROLL 1
0000,
#SCROLL 3
0
#SCROLL 1
000000,
#SCROLL 2
0
#SCROLL 1
0000000,
#SCROLL 1
1,
#SCROLL 1.5
000
#SCROLL 1
0000,
#SCROLL 3
0
#SCROLL 1
000000,
#SCROLL 2
0
#SCROLL 1
0000000,
#SCROLL 1
0,
#SCROLL 1
000
#SCROLL 1
0000,
#SCROLL 3
0
#SCROLL 1
000000,
#SCROLL 2
0
#SCROLL 1
0000000,
#SCROLL 1
0,
#SCROLL 1.5
000
#SCROLL 1
0000,
#SCROLL 1
2
#SCROLL 1
000000,
#SCROLL 2
0
#SCROLL 1
0000000,
#SCROLL 1
0,
#SCROLL 1.5
0
#SCROLL 1
00,
#SCROLL 3
0
#SCROLL 1
000000,
#SCROLL 1
0
#SCROLL 1
0000000,
#SCROLL 1
0,
#SCROLL 0.988372
000
#SCROLL 0.983389
0000,
#SCROLL 0.976744
0000
#SCROLL 0.975083
00000000000000000
#SCROLL 0.968023
0000000,
#SCROLL 0.965116
0
#SCROLL 0.963663
0000000,
#SCROLL 0.953488
1,
#SCROLL 0.94186
000
#SCROLL 0.936877
0000,
#SCROLL 0.930233
0
#SCROLL 0.928571
000000,
#SCROLL 0.918605
0
#SCROLL 0.917151
0000000,
#SCROLL 0.906977
0,
#SCROLL 0.895349
000
#SCROLL 0.890365
0000,
#SCROLL 0.883721
0
#SCROLL 0.88206
000000,
#SCROLL 0.872093
0
#SCROLL 0.87064
0000000,
#SCROLL 0.860465
0,
#SCROLL 0.848837
000
#SCROLL 0.843854
0000,
#SCROLL 0.837209
2
#SCROLL 0.835548
000000,
#SCROLL 0.825581
0
#SCROLL 0.824128
0000000,
#SCROLL 0.813953
0,
#SCROLL 0.802326
0
#SCROLL 0.804848
00,
#SCROLL 0.809892
0
#SCROLL 0.810973
000000,
#SCROLL 0.817459
0
#SCROLL 0.818404
0000000,
#SCROLL 0.825025
0,
#SCROLL 0.832592
000
#SCROLL 0.835834
0000,
#SCROLL 0.840158
0
#SCROLL 0.841239
000000,
#SCROLL 0.847724
0
#SCROLL 0.84867
0000000,
#SCROLL 0.855291
1,
#SCROLL 0.862857
000
#SCROLL 0.8661
0000,
#SCROLL 0.870424
0
#SCROLL 0.871505
000000,
#SCROLL 0.87799
0
#SCROLL 0.878936
0000000,
,
,
#SCROLL 0.90069
0
#SCROLL 0.901771
000000,
#SCROLL 0.908256
0
#SCROLL 0.909202
0000000,
#SCROLL 0.915823
0,
#SCROLL 0.923389
000
#SCROLL 0.926632
0000,
2,
#SCROLL 0.938522
0
#SCROLL 0.939468
0000000,
#SCROLL 0.946089
0,
#SCROLL 0.953655
000
#SCROLL 0.956898
0000,
#SCROLL 0.961222
0
#SCROLL 0.962303
000000,
,
#SCROLL 0.976355
0,
#SCROLL 0.983921
000
#SCROLL 0.987164
0000,
#SCROLL 0.991488
0
#SCROLL 0.992569
000000,
#SCROLL 0.999054
0
#SCROLL 1
0000000,
#SCROLL 1
1,
#SCROLL 1.5
000
#SCROLL 1
0000,
#SCROLL 3
0
#SCROLL 1
000000,
#SCROLL 2
0
#SCROLL 1
0000000,
#SCROLL 1
0,
200
#SCROLL 1
0000,
#SCROLL 3
0
#SCROLL 1
000000,
#SCROLL 2
0
#SCROLL 1
0000000,
#SCROLL 1
0,
#SCROLL 1.5
000
#SCROLL 1
0000,
1,
#SCROLL 2
0
#SCROLL 1
0000000,
#SCROLL 1
01,
#SCROLL 1.5
0
#SCROLL 1
00,
#SCROLL 3
0
#SCROLL 1
000000,
2,
#SCROLL 1
0,
#SCROLL 1.5
000000
#SCROLL 1
02000000,
#SCROLL 3
0
#SCROLL 1
000000,
#SCROLL 2
0
#SCROLL 1
0000000,
#SCROLL 1
1,
#SCROLL 1.5
000
#SCROLL 1
0000,
#SCROLL 3
0
#SCROLL 1
000000,
#SCROLL 2
0
#SCROLL 1
0000000,
#SCROLL 1
0,
#SCROLL 1
100
#SCROLL 1
0000,
#SCROLL 3
0
#SCROLL 1
000000,
#SCROLL 2
0
#SCROLL 1
0000000,
#SCROLL 1
0,
#SCROLL 1.5
000
#SCROLL 1
0000,
#SCROLL 1
1
#SCROLL 1
000000,
#SCROLL 2
0
#SCROLL 1
0000000,
#SCROLL 1
0,
#SCROLL 1.5
0
#SCROLL 1
00,
#SCROLL 3
0
#SCROLL 1
000000,
#SCROLL 1
1
#SCROLL 1
0000000,
#SCROLL 1
0,
#SCROLL 1.5
000
#SCROLL 1
0000,
#SCROLL 3
0
#SCROLL 1
000000,
#SCROLL 2
0
#SCROLL 1
0000000,
#MEASURE 4/4
3,
,
4020,
2222,
20002225,
0081,
10111011,
10101011,
11111101,
01111111,
10201120,
10201212,
10201120,
10201120,
10201122,
10201022,
10101012,
12121212,
#MEASURE 8/4
0000000
#SCROLL 1.5
4,
#MEASURE 4/4
#GOGOSTART
#SCROLL 1
30121205,
00008011,
10121012,
10201022,
10201102,
01222222,
10201022,
10201022,
12121205,
00008021,
2001001010001010,
10201022,
12112202,
02121212,
#GOGOEND
3,
,
#GOGOSTART
1002002010000020,
1002002010020020,
10201120,
1002001000102020,
1002002010000020,
1000202010020020,
10201120,
1020201110102020,
#GOGOEND
3,
#END
COURSE:Oni
LEVEL:10
STYLE:Single
BALLOON:6,6,6,6
SCOREINIT:
SCOREDIFF:
#START
1212101220107000,
8012122212221222,
#GOGOSTART
1021012210120212,
1201012110120120,
1012012111012212,
1012012010201122,
1021012210120212,
1201012110120120,
1020102101201202,
100200200000200000100200000200100100200020002000,
#GOGOEND
1010201201021020,
1020112020221020,
1022202110102222,
1020121010201020,
1101202202012020,
1022101020201012,
11112213,
00040112,
2222121120121011,
1010101101202020,
2012121122211211,
1022201101102020,
1021222220201211,
1020202101202020,
1221101210222022,
100100100100202020101010,
2000201020202022,
2010201120202020,
1011201021202020,
100100000100200000200100200020002000100010001000,
2010201120202012,
1101201120101020,
100100100100200200200200100010001000200020002000,
10002022,
#GOGOSTART
3020112012021020,
1020112011221020,
1012101210221020,
1021202120221010,
1101202021012020,
2011201120221120,
2022101110201120,
100200100100200200200200100010001000200020002000,
1011202011011020,
1021201020111010,
2022102120221020,
1021202120102211,
2201102011012020,
1020112012021020,
1011101020222020,
1120202020102020,
#GOGOEND
1212101220107000,
8012122212221222,
#GOGOSTART
1021012210120212,
1201012110120120,
1012012111012212,
1012012010201122,
1021012210120212,
1201012110120120,
1020102101201202,
1220201202112020,
#GOGOEND
222202211201,
222202212200,
122122211201,
122122212200,
212202122102,
112201212201,
122202110201,
211222
#SCROLL 1.4
400
#SCROLL 2
3
#SCROLL 1
00,
#MEASURE 1/20
#SCROLL 1
2,
#SCROLL 1.5
000000000
#SCROLL 1
000002000000,
#SCROLL 3
0
#SCROLL 1
000000,
#SCROLL 2
000
#SCROLL 1
000002000000000000000,
#SCROLL 1
0,
#SCROLL 1
200
#SCROLL 1
0000,
#SCROLL 3
0
#SCROLL 1
000000,
#SCROLL 2
0
#SCROLL 1
0000000,
#SCROLL 1
020,
#SCROLL 1.5
000
#SCROLL 1
0000,
#SCROLL 1
2
#SCROLL 1
000000,
#SCROLL 2
000
#SCROLL 1
000000000000010000000,
#SCROLL 1
0,
#SCROLL 1.5
0
#SCROLL 1
10,
#SCROLL 3
0
#SCROLL 1
000000,
#SCROLL 1
2
#SCROLL 1
0000000,
#SCROLL 1
0,
#SCROLL 1.5
000
#SCROLL 1
0000,
#SCROLL 3
000
#SCROLL 1
000010000000000000,
#SCROLL 2
0
#SCROLL 1
0000000,
#SCROLL 1
2,
#SCROLL 1.5
000000000
#SCROLL 1
000002000000,
#SCROLL 3
0
#SCROLL 1
000000,
#SCROLL 2
000
#SCROLL 1
000002000000000000000,
#SCROLL 1
0,
#SCROLL 1
200
#SCROLL 1
0000,
#SCROLL 3
0
#SCROLL 1
000000,
#SCROLL 2
0
#SCROLL 1
0000000,
#SCROLL 1
020,
#SCROLL 1.5
000
#SCROLL 1
0000,
#SCROLL 1
2
#SCROLL 1
000000,
#SCROLL 2
000
#SCROLL 1
000000000000010000000,
#SCROLL 1
0,
#SCROLL 1.5
0
#SCROLL 1
20,
#SCROLL 3
0
#SCROLL 1
000000,
#SCROLL 1
2
#SCROLL 1
0000000,
#SCROLL 1
0,
#SCROLL 0.988372
000
#SCROLL 0.983389
0000,
#SCROLL 0.976744
0000
#SCROLL 0.975083
00000000000000000
#SCROLL 0.968023
0000000,
#SCROLL 0.965116
0
#SCROLL 0.963663
0000000,
#SCROLL 0.953488
0,
#SCROLL 0.94186
000
#SCROLL 0.936877
0000,
#SCROLL 0.930233
0
#SCROLL 0.928571
000000,
#SCROLL 0.918605
0
#SCROLL 0.917151
0000000,
#SCROLL 0.906977
0,
#SCROLL 0.895349
000
#SCROLL 0.890365
0000,
#SCROLL 0.883721
0
#SCROLL 0.88206
000000,
#SCROLL 0.872093
0
#SCROLL 0.87064
0000000,
#SCROLL 0.860465
0,
#SCROLL 0.848837
000
#SCROLL 0.843854
0000,
#SCROLL 0.837209
0
#SCROLL 0.835548
000000,
#SCROLL 0.825581
0
#SCROLL 0.824128
0000000,
#SCROLL 0.813953
0,
#SCROLL 0.802326
0
#SCROLL 0.804848
00,
#SCROLL 0.809892
0
#SCROLL 0.810973
000000,
#SCROLL 0.817459
0
#SCROLL 0.818404
0000000,
#SCROLL 0.825025
0,
#SCROLL 0.832592
000
#SCROLL 0.835834
0000,
#SCROLL 0.840158
0
#SCROLL 0.841239
000000,
#SCROLL 0.847724
0
#SCROLL 0.84867
0000000,
#SCROLL 0.855291
0,
#SCROLL 0.862857
000
#SCROLL 0.8661
0000,
#SCROLL 0.870424
0
#SCROLL 0.871505
000000,
#SCROLL 0.87799
0
#SCROLL 0.878936
0000000,
,
,
#SCROLL 0.90069
0
#SCROLL 0.901771
000000,
#SCROLL 0.908256
0
#SCROLL 0.909202
0000000,
#SCROLL 0.915823
0,
#SCROLL 0.923389
000
#SCROLL 0.926632
0000,
,
#SCROLL 0.938522
0
#SCROLL 0.939468
0000000,
#SCROLL 0.946089
0,
#SCROLL 0.953655
000
#SCROLL 0.956898
0000,
#SCROLL 0.961222
0
#SCROLL 0.962303
000000,
,
#SCROLL 0.976355
0,
#SCROLL 0.983921
000
#SCROLL 0.987164
0000,
#SCROLL 0.991488
0
#SCROLL 0.992569
000000,
#SCROLL 0.999054
0
#SCROLL 1
0000000,
#SCROLL 1
2,
#SCROLL 1.5
000000000
#SCROLL 1
000001000000,
#SCROLL 3
0
#SCROLL 1
000000,
#SCROLL 2
000
#SCROLL 1
000002000000000000000,
#SCROLL 1
0,
200
#SCROLL 1
0000,
#SCROLL 3
0
#SCROLL 1
000000,
#SCROLL 2
0
#SCROLL 1
0000000,
#SCROLL 1
020,
#SCROLL 1.5
000
#SCROLL 1
0000,
1,
#SCROLL 2
000
#SCROLL 1
000000000000020000000,
#SCROLL 1
0,
#SCROLL 1.5
0
#SCROLL 1
20,
#SCROLL 3
0
#SCROLL 1
000000,
1,
#SCROLL 1
0,
#SCROLL 1.5
000
#SCROLL 1
0000,
#SCROLL 3
000
#SCROLL 1
000020000000000000,
#SCROLL 2
0
#SCROLL 1
0000000,
#SCROLL 1
1,
#SCROLL 1.5
000000000
#SCROLL 1
000001000000,
#SCROLL 3
0
#SCROLL 1
000000,
#SCROLL 2
000
#SCROLL 1
000002000000000000000,
#SCROLL 1
0,
#SCROLL 1
200
#SCROLL 1
0000,
#SCROLL 3
0
#SCROLL 1
000000,
#SCROLL 2
0
#SCROLL 1
0000000,
#SCROLL 1
010,
#SCROLL 1.5
000
#SCROLL 1
0000,
#SCROLL 1
2
#SCROLL 1
000000,
#SCROLL 2
000
#SCROLL 1
000000000000010000000,
#SCROLL 1
0,
#SCROLL 1.5
0
#SCROLL 1
20,
#SCROLL 3
0
#SCROLL 1
000000,
#SCROLL 1
2
#SCROLL 1
0000000,
#SCROLL 1
0,
#SCROLL 1.5
000
#SCROLL 1
0000,
#SCROLL 3
0
#SCROLL 1
000000,
#SCROLL 2
0
#SCROLL 1
0000000,
#MEASURE 4/4
#SCROLL 3
3
#SCROLL 1
00000000000000000000000000000000000000000000000000000000000000000000000000000000000000000000000000000000000000000000000000000000000000000000000000000000000000000000000000000000000000000000000,
1212101220107000,
80221022,
20122011,
12212122,
01212010,
10122022,
20101021,
20111201,
100200000100200100100100200000100000200020002000,
1000202010201122,
1020102010201122,
1010201210201020,
1020102011012020,
1020112210102012,
1020112011221020,
1011201210112020,
100100100100200200200200100010001000200020002000,
#MEASURE 8/4
#SCROLL 2
3000000
#SCROLL 3
4,
#MEASURE 4/4
#GOGOSTART
#SCROLL 1
3012101210221020,
1021202120221010,
1101202021012020,
2011201120221120,
2022101110201120,
100200100100200200200200100010001000200020002000,
1011202011011020,
1021201020111010,
2022102120221020,
1021202120102211,
2201102011012020,
1020112012021020,
1011101020222020,
1120202020102020,
#GOGOEND
1212101220107000,
8012122212221222,
#GOGOSTART
1021012210120212,
1201012110120120,
1012012111012212,
1012012010201122,
1021012210120212,
1201012110120120,
1020102101201202,
100200200000200000100200100010001000200020002000,
#GOGOEND
2,
#END
STYLE:Double
BALLOON:6,6,6,6
SCOREINIT:
SCOREDIFF:
#START P1
1212101220107000,
8012122212221222,
#GOGOSTART
1021012210120212,
1201012110120120,
1012012111012212,
1012012010201122,
1021012210120212,
1201012110120120,
1020102101201202,
100200200000200000100200000200100100200020002000,
#GOGOEND
2001201201011020,
02122212,
02020222,
12121010,
1000202202212020,
02112212,
01112213,
00040000,
1000201210102011,
1010202120102020,
1011201010102012,
1010201020112020,
1011201210102222,
1011201101102020,
1011201210102022,
100000100000200000100100200020002000100010001000,
10211222,
20202222,
10011111,
20201111,
20012221,
20201212,
100000100000200200000200100010001000200020002000,
10002022,
#GOGOSTART
30222022,
10201022,
12121201,
01212011,
10122022,
20202012,
22111202,
00101111,
3010201210112020,
1010201212012020,
1020112011012020,
1020112011202020,
1010201210102022,
1010201212012020,
1020112010102012,
100100200200101010202020,
#GOGOEND
1212101220107000,
8012122212221222,
#GOGOSTART
1021012210120212,
1201012110120120,
1012012111012212,
1012012010201122,
1021012210120212,
1201012110120120,
1020102101201202,
100200200000200000100200000200100100200020002000,
#GOGOEND
222202211201,
222202212200,
122122211201,
122122212200,
212202122102,
112201212201,
122202110201,
211222
#SCROLL 1.4
400
#SCROLL 2
3
#SCROLL 1
00,
#MEASURE 1/20
#SCROLL 1
2,
#SCROLL 1.5
000
#SCROLL 1
0000,
#SCROLL 3
0
#SCROLL 1
000000,
#SCROLL 2
0
#SCROLL 1
0000000,
#SCROLL 1
0,
#SCROLL 1
200000000000000000
#SCROLL 1
000000000000000002000000,
#SCROLL 3
000
#SCROLL 1
000000000002000000,
#SCROLL 2
0
#SCROLL 1
0002000,
#SCROLL 1
0,
#SCROLL 1.5
000
#SCROLL 1
0000,
#SCROLL 1
2
#SCROLL 1
000000,
#SCROLL 2
0
#SCROLL 1
0000000,
#SCROLL 1
0,
#SCROLL 1.5
0
#SCROLL 1
00,
#SCROLL 3
0
#SCROLL 1
000000,
#SCROLL 1
1
#SCROLL 1
0000000,
#SCROLL 1
0,
#SCROLL 1.5
000000
#SCROLL 1
02000000,
#SCROLL 3
0
#SCROLL 1
000000,
#SCROLL 2
0
#SCROLL 1
0000000,
#SCROLL 1
1,
#SCROLL 1.5
000
#SCROLL 1
0000,
#SCROLL 3
0
#SCROLL 1
000000,
#SCROLL 2
0
#SCROLL 1
0000000,
#SCROLL 1
0,
#SCROLL 1
200
#SCROLL 1
0000,
#SCROLL 3
0
#SCROLL 1
000000,
#SCROLL 2
0
#SCROLL 1
0001000,
#SCROLL 1
0,
#SCROLL 1.5
000
#SCROLL 1
0000,
#SCROLL 1
2
#SCROLL 1
000000,
#SCROLL 2
0
#SCROLL 1
0200000,
#SCROLL 1
02,
#SCROLL 1.5
0000
#SCROLL 1
00000200,
#SCROLL 3
0
#SCROLL 1
000000,
#SCROLL 1
1
#SCROLL 1
0000000,
#SCROLL 1
0,
#SCROLL 0.988372
000000
#SCROLL 0.983389
02000000,
#SCROLL 0.976744
0000
#SCROLL 0.975083
00000000000000000
#SCROLL 0.968023
0000000,
#SCROLL 0.965116
0
#SCROLL 0.963663
0000000,
#SCROLL 0.953488
1,
#SCROLL 0.94186
000
#SCROLL 0.936877
0000,
#SCROLL 0.930233
0
#SCROLL 0.928571
000000,
#SCROLL 0.918605
0
#SCROLL 0.917151
0000000,
#SCROLL 0.906977
0,
#SCROLL 0.895349
000
#SCROLL 0.890365
0000,
#SCROLL 0.883721
0
#SCROLL 0.88206
000000,
#SCROLL 0.872093
0
#SCROLL 0.87064
0000000,
#SCROLL 0.860465
0,
#SCROLL 0.848837
000
#SCROLL 0.843854
0000,
#SCROLL 0.837209
0
#SCROLL 0.835548
000000,
#SCROLL 0.825581
0
#SCROLL 0.824128
0000000,
#SCROLL 0.813953
0,
#SCROLL 0.802326
0
#SCROLL 0.804848
00,
#SCROLL 0.809892
0
#SCROLL 0.810973
000000,
#SCROLL 0.817459
0
#SCROLL 0.818404
0000000,
#SCROLL 0.825025
0,
#SCROLL 0.832592
000
#SCROLL 0.835834
0000,
#SCROLL 0.840158
0
#SCROLL 0.841239
000000,
#SCROLL 0.847724
0
#SCROLL 0.84867
0000000,
#SCROLL 0.855291
0,
#SCROLL 0.862857
000
#SCROLL 0.8661
0000,
#SCROLL 0.870424
0
#SCROLL 0.871505
000000,
#SCROLL 0.87799
0
#SCROLL 0.878936
0000000,
,
,
#SCROLL 0.90069
0
#SCROLL 0.901771
000000,
#SCROLL 0.908256
0
#SCROLL 0.909202
0000000,
#SCROLL 0.915823
0,
#SCROLL 0.923389
000
#SCROLL 0.926632
0000,
,
#SCROLL 0.938522
0
#SCROLL 0.939468
0000000,
#SCROLL 0.946089
0,
#SCROLL 0.953655
000
#SCROLL 0.956898
0000,
#SCROLL 0.961222
0
#SCROLL 0.962303
000000,
,
#SCROLL 0.976355
0,
#SCROLL 0.983921
000
#SCROLL 0.987164
0000,
#SCROLL 0.991488
0
#SCROLL 0.992569
000000,
#SCROLL 0.999054
0
#SCROLL 1
0000000,
#SCROLL 1
0,
#SCROLL 1.5
000
#SCROLL 1
0000,
#SCROLL 3
0
#SCROLL 1
000000,
#SCROLL 2
0
#SCROLL 1
0000000,
#SCROLL 1
0,
200000000000000000
#SCROLL 1
000000000000000002000000,
#SCROLL 3
000
#SCROLL 1
000000000002000000,
#SCROLL 2
0
#SCROLL 1
0002000,
#SCROLL 1
0,
#SCROLL 1.5
000
#SCROLL 1
0000,
2,
#SCROLL 2
0
#SCROLL 1
0000000,
#SCROLL 1
0,
#SCROLL 1.5
0
#SCROLL 1
00,
#SCROLL 3
0
#SCROLL 1
000000,
1,
#SCROLL 1
0,
#SCROLL 1.5
000000
#SCROLL 1
02000000,
#SCROLL 3
0
#SCROLL 1
000000,
#SCROLL 2
0
#SCROLL 1
0000000,
#SCROLL 1
1,
#SCROLL 1.5
000
#SCROLL 1
0000,
#SCROLL 3
0
#SCROLL 1
000000,
#SCROLL 2
0
#SCROLL 1
0000000,
#SCROLL 1
0,
#SCROLL 1
200
#SCROLL 1
0000,
#SCROLL 3
0
#SCROLL 1
000000,
#SCROLL 2
0
#SCROLL 1
0001000,
#SCROLL 1
0,
#SCROLL 1.5
000
#SCROLL 1
0000,
#SCROLL 1
2
#SCROLL 1
000000,
#SCROLL 2
0
#SCROLL 1
0200000,
#SCROLL 1
02,
#SCROLL 1.5
0000
#SCROLL 1
00000200,
#SCROLL 3
0
#SCROLL 1
000000,
#SCROLL 1
1
#SCROLL 1
0000000,
#SCROLL 1
0,
#SCROLL 1.5
000000
#SCROLL 1
02000000,
#SCROLL 3
0
#SCROLL 1
000000,
#SCROLL 2
0
#SCROLL 1
0000000,
#MEASURE 4/4
#SCROLL 3
3
#SCROLL 1
00000000000000000000000000000000000000000000000000000000000000000000000000000000000000000000000000000000000000000000000000000000000000000000000000000000000000000000000000000000000000000000000,
1212101220107000,
80221022,
20122011,
12212122,
01212010,
10122022,
20101021,
20111201,
100200000100200100100100200000100000200020002000,
1011201211012022,
1010201212201122,
1020112010122020,
1021012010201120,
1020112010201120,
1021012110101010,
1122112211221122,
100000100200100000100200100010001000200020002000,
#MEASURE 8/4
#SCROLL 2
3000000
#SCROLL 3
4,
#MEASURE 4/4
#GOGOSTART
#SCROLL 1
32121201,
01212011,
10122022,
20202012,
22111202,
00101111,
3010201210112020,
1010201212012020,
1020112011012020,
1020112011202020,
1010201210102022,
1010201212012020,
1020112010102012,
100100200200101010202020,
#GOGOEND
1212101220107000,
8012122212221222,
#GOGOSTART
1021012210120212,
1201012110120120,
1012012111012212,
1012012010201122,
1021012210120212,
1201012110120120,
1020102101201202,
100200200000200000100200000200100100200020002000,
#GOGOEND
2,
#END
#START P2
1212101220107000,
8012122212221222,
#GOGOSTART
1021012210120212,
1201012110120120,
1012012111012212,
1012012010201122,
1021012210120212,
1201012110120120,
1020102101201202,
100200200000200000100200000200100100200020002000,
#GOGOEND
1000200200102220,
1010202220102000,
1011201210102222,
1011200010201020,
1111201001102022,
1000202210201020,
1011202220202030,
00040112,
2222121120121011,
11110222,
2012121122211211,
11210122,
1021222220201211,
12220222,
1221101210202022,
100100100100202020101010,
10102022,
10102022,
1011101020002020,
100100222111,
10012221,
20201212,
11111112,
2,
#GOGOSTART
3010201210112020,
1010201212012020,
1020112011012020,
1020112011202020,
1010201210102022,
1010201212012020,
1020112010102012,
100100200200101010202020,
10221012,
10212012,
12121201,
01212021,
20121012,
20201012,
21122202,
02222122,
#GOGOEND
2,
,
#GOGOSTART
3021012210120212,
1201012110120120,
1012012111012212,
1012012010201122,
1021012210120212,
1201012110120120,
1020102101201202,
100200200000200000100200000200100100200020002000,
#GOGOEND
200000222200200000100200,
1000201022221020,
100000222200200000100200,
100000100100100000100000200000100000200020002000,
200000222200200000100200,
1000201022221020,
100000222200200000100200,
100000100100100000100000
#SCROLL 1.4
400000000000
#SCROLL 2
3000
#SCROLL 1
00000000,
#MEASURE 1/20
#SCROLL 1
2,
#SCROLL 1.5
000000000
#SCROLL 1
000002000000,
#SCROLL 3
0
#SCROLL 1
000000,
#SCROLL 2
000
#SCROLL 1
000002000000000000000,
#SCROLL 1
0,
#SCROLL 1
200
#SCROLL 1
0000,
#SCROLL 3
0
#SCROLL 1
000000,
#SCROLL 2
0
#SCROLL 1
0000000,
#SCROLL 1
020,
#SCROLL 1.5
000
#SCROLL 1
0000,
#SCROLL 1
2
#SCROLL 1
000000,
#SCROLL 2
000
#SCROLL 1
000000000000010000000,
#SCROLL 1
0,
#SCROLL 1.5
0
#SCROLL 1
10,
#SCROLL 3
0
#SCROLL 1
000000,
#SCROLL 1
2
#SCROLL 1
0000000,
#SCROLL 1
0,
#SCROLL 1.5
000
#SCROLL 1
0000,
#SCROLL 3
000
#SCROLL 1
000010000000000000,
#SCROLL 2
0
#SCROLL 1
0000000,
#SCROLL 1
2,
#SCROLL 1.5
000000000
#SCROLL 1
000002000000,
#SCROLL 3
0
#SCROLL 1
000000,
#SCROLL 2
000
#SCROLL 1
000002000000000000000,
#SCROLL 1
0,
#SCROLL 1
200
#SCROLL 1
0000,
#SCROLL 3
0
#SCROLL 1
000000,
#SCROLL 2
0
#SCROLL 1
0000000,
#SCROLL 1
020,
#SCROLL 1.5
000
#SCROLL 1
0000,
#SCROLL 1
2
#SCROLL 1
000000,
#SCROLL 2
000
#SCROLL 1
000000000000010000000,
#SCROLL 1
0,
#SCROLL 1.5
0
#SCROLL 1
20,
#SCROLL 3
0
#SCROLL 1
000000,
#SCROLL 1
2
#SCROLL 1
0000000,
#SCROLL 1
0,
#SCROLL 0.988372
000
#SCROLL 0.983389
0000,
#SCROLL 0.976744
0000
#SCROLL 0.975083
00000000000000000
#SCROLL 0.968023
0000000,
#SCROLL 0.965116
0
#SCROLL 0.963663
0000000,
#SCROLL 0.953488
0,
#SCROLL 0.94186
000
#SCROLL 0.936877
0000,
#SCROLL 0.930233
0
#SCROLL 0.928571
000000,
#SCROLL 0.918605
0
#SCROLL 0.917151
0000000,
#SCROLL 0.906977
0,
#SCROLL 0.895349
000
#SCROLL 0.890365
0000,
#SCROLL 0.883721
0
#SCROLL 0.88206
000000,
#SCROLL 0.872093
0
#SCROLL 0.87064
0000000,
#SCROLL 0.860465
0,
#SCROLL 0.848837
000
#SCROLL 0.843854
0000,
#SCROLL 0.837209
0
#SCROLL 0.835548
000000,
#SCROLL 0.825581
0
#SCROLL 0.824128
0000000,
#SCROLL 0.813953
0,
#SCROLL 0.802326
0
#SCROLL 0.804848
00,
#SCROLL 0.809892
0
#SCROLL 0.810973
000000,
#SCROLL 0.817459
0
#SCROLL 0.818404
0000000,
#SCROLL 0.825025
0,
#SCROLL 0.832592
000
#SCROLL 0.835834
0000,
#SCROLL 0.840158
0
#SCROLL 0.841239
000000,
#SCROLL 0.847724
0
#SCROLL 0.84867
0000000,
#SCROLL 0.855291
0,
#SCROLL 0.862857
000
#SCROLL 0.8661
0000,
#SCROLL 0.870424
0
#SCROLL 0.871505
000000,
#SCROLL 0.87799
0
#SCROLL 0.878936
0000000,
,
,
#SCROLL 0.90069
0
#SCROLL 0.901771
000000,
#SCROLL 0.908256
0
#SCROLL 0.909202
0000000,
#SCROLL 0.915823
0,
#SCROLL 0.923389
000
#SCROLL 0.926632
0000,
,
#SCROLL 0.938522
0
#SCROLL 0.939468
0000000,
#SCROLL 0.946089
0,
#SCROLL 0.953655
000
#SCROLL 0.956898
0000,
#SCROLL 0.961222
0
#SCROLL 0.962303
000000,
,
#SCROLL 0.976355
0,
#SCROLL 0.983921
000
#SCROLL 0.987164
0000,
#SCROLL 0.991488
0
#SCROLL 0.992569
000000,
#SCROLL 0.999054
0
#SCROLL 1
0000000,
#SCROLL 1
2,
#SCROLL 1.5
000000000
#SCROLL 1
000001000000,
#SCROLL 3
0
#SCROLL 1
000000,
#SCROLL 2
000
#SCROLL 1
000002000000000000000,
#SCROLL 1
0,
200
#SCROLL 1
0000,
#SCROLL 3
0
#SCROLL 1
000000,
#SCROLL 2
0
#SCROLL 1
0000000,
#SCROLL 1
020,
#SCROLL 1.5
000
#SCROLL 1
0000,
1,
#SCROLL 2
000
#SCROLL 1
000000000000020000000,
#SCROLL 1
0,
#SCROLL 1.5
0
#SCROLL 1
20,
#SCROLL 3
0
#SCROLL 1
000000,
1,
#SCROLL 1
0,
#SCROLL 1.5
000
#SCROLL 1
0000,
#SCROLL 3
000
#SCROLL 1
000020000000000000,
#SCROLL 2
0
#SCROLL 1
0000000,
#SCROLL 1
1,
#SCROLL 1.5
000000000
#SCROLL 1
000001000000,
#SCROLL 3
0
#SCROLL 1
000000,
#SCROLL 2
000
#SCROLL 1
000002000000000000000,
#SCROLL 1
0,
#SCROLL 1
200
#SCROLL 1
0000,
#SCROLL 3
0
#SCROLL 1
000000,
#SCROLL 2
0
#SCROLL 1
0000000,
#SCROLL 1
010,
#SCROLL 1.5
000
#SCROLL 1
0000,
#SCROLL 1
2
#SCROLL 1
000000,
#SCROLL 2
000
#SCROLL 1
000000000000010000000,
#SCROLL 1
0,
#SCROLL 1.5
0
#SCROLL 1
20,
#SCROLL 3
0
#SCROLL 1
000000,
#SCROLL 1
2
#SCROLL 1
0000000,
#SCROLL 1
0,
#SCROLL 1.5
000
#SCROLL 1
0000,
#SCROLL 3
0
#SCROLL 1
000000,
#SCROLL 2
0
#SCROLL 1
0000000,
#MEASURE 4/4
#SCROLL 3
3
#SCROLL 1
00000000000000000000000000000000000000000000000000000000000000000000000000000000000000000000000000000000000000000000000000000000000000000000000000000000000000000000000000000000000000000000000,
1212101220107000,
8012001120121012,
2012001120121012,
2012001120121012,
2012001120121012,
2012001120121012,
2012001120121012,
2012001120121012,
100200000100200100100100200000100000200020002000,
10221012,
10202022,
11211202,
01212022,
10222022,
10102021,
22112202,
01212122,
#MEASURE 8/4
#SCROLL 2
3000000
#SCROLL 3
4,
#MEASURE 4/4
#GOGOSTART
#SCROLL 1
3020112011012020,
1020112011202020,
1010201210102022,
1010201212012020,
1020112010102012,
100100200200101010202020,
10221012,
10212012,
12121201,
01212021,
20121012,
20201012,
21122202,
02222122,
#GOGOEND
1212101220107000,
8012122212221222,
#GOGOSTART
1021012210120212,
1201012110120120,
1012012111012212,
1012012010201122,
1021012210120212,
1201012110120120,
1020102101201202,
100200200000200000100200100010001000200020002000,
#GOGOEND
2,
#END