Files
Colins_Custom_Charts/03 VOCALOID/NEO/NEO.tja
T
2025-12-20 15:52:49 -05:00

492 lines
4.5 KiB
Plaintext

TITLE:NEO
SUBTITLE:--JIN feat. ProSeka Group Leaders / Project SEKAI COLORFUL STAGE
TITLEJA:NEO
SUBTITLEJA:じん feat. プロセカリーダース「プロジェクトセカイ カラフルステージ!」より
PREIMAGE:NEO.png
BGMOVIE:NEO.mp4
WAVE:NEO.ogg
BPM:189.813
OFFSET:-4.943
DEMOSTART:41.926
MAKER:Colin
COURSE:Easy
LEVEL:4
SCOREINIT:
SCOREDIFF:
NOTESDESIGNER0:Colin
#START
10010010,
,
10010010,
,
20020020,
,
10010010,
,
1020,
1,
1020,
1,
2020,
2,
10010050,
0080,
2,
2020,
20000002,
,
1010,
1,
5080,
5080,
1020,
2011,
1010,
1010,
,
,
#GOGOSTART
3020,
1010,
1011,
1020,
2220,
2222,
5,
000
#GOGOEND
8,
#GOGOSTART
4110,
1110,
2222,
0111,
10011000,
20022022,
,
0111,
#GOGOEND
4,
4,
10010010,
,
10010010,
,
20020020,
,
20020020,
,
1,
1,
1010,
1,
1,
1,
1010,
1,
2020,
2,
2002,
,
1050,
8,
#GOGOSTART
3020,
1010,
1011,
1020,
2220,
2222,
5,
000
#GOGOEND
8,
#GOGOSTART
4110,
1110,
2222,
0111,
10011000,
20022022,
,
0111,
#GOGOEND
4,
4,
2,
,
2,
04000000,
#END
COURSE:Normal
LEVEL:5
SCOREINIT:
SCOREDIFF:
NOTESDESIGNER1:Colin
#START
10010010,
,
10010010,
,
20020020,
,
10010010,
,
1020,
1110,
1020,
1110,
2020,
2220,
10010050,
0080,
2,
2220,
20002002,
,
1011,
1010,
5080,
5080,
1220,
2011,
1010,
1010,
,
,
#GOGOSTART
3020,
1110,
10001011,
1020,
20202022,
2222,
5,
000
#GOGOEND
8,
#GOGOSTART
40101001,
1112,
2222,
0111,
10011000,
20022022,
,
0111,
#GOGOEND
40022000,
40022000,
10010010,
,
10010010,
,
20020020,
,
20020020,
,
1010,
1011,
1011,
,
1,
1020,
1011,
,
2220,
2022,
2022,
,
1050,
8,
#GOGOSTART
3022,
1011,
1011,
10002022,
2220,
20222020,
5,
000
#GOGOEND
8,
#GOGOSTART
40101011,
1110,
2222,
0111,
10011000,
20022022,
0111,
0111,
#GOGOEND
4,
4,
2,
,
2,
04000000,
#END
COURSE:Hard
LEVEL:4
SCOREINIT:
SCOREDIFF:
NOTESDESIGNER2:Colin
#START
01202021,
01000221,
10210220,
01000212,
01222012,
02000122,
21220210,
02000000,
01201021,
11000102,
10120210,
11000221,
01112012,
02000211,
20210210,
1022201110202000,
20012222,
01020222,
10122222,
00010222,
20222111,
02021201,
20021020,
10022022,
20021001,
2012,
12101210,
1020100010222011,
1,
44000000,
#GOGOSTART
31204022,
2412,
1144,
0121,
32222012,
20201121,
1212,
044
#GOGOEND
4,
#GOGOSTART
31203011,
20122020,
3333,
00102021,
20021001,
10022043,
01222020,
11221020,
#GOGOEND
4,
4,
1000000100001000,
,
10010010,
,
10010010,
,
10010010,
,
11102011,
2212,
1222,
0112,
22202022,
20102220,
1112,
0112,
11201022,
10212022,
1112,
0122,
10025000,
8,
#GOGOSTART
31204022,
2412,
1144,
0121,
32222012,
20201121,
1212,
044
#GOGOEND
4,
#GOGOSTART
31203011,
20122020,
3333,
00102021,
20021001,
10022043,
01222020,
11221020,
#GOGOEND
4,
4,
10010010,
,
10010010,
04000000,
#END
COURSE:Oni
LEVEL:9
SCOREINIT:
SCOREDIFF:
NOTESDESIGNER3:Colin
#START
01201021,
01000211,
10210220,
21000112,
01222012,
02000122,
20120210,
1022202022222211,
1010201110102010,
2010201110102120,
1010201110102010,
100000100100200000202020100000100000200200100000,
1010202011102010,
1021201010112020,
2010201110201000,
1011202210222222,
1011102020202010,
1120102010111020,
1010202210221020,
1120102010202010,
200000202020100000100100200000100000100000200000,
02111212,
3010201210102022,
1010201210102211,
2010201110102010,
2011102222221111,
2011201020112010,
2011201022222222,
1,
#SCROLL 1.5
33
#SCROLL 1
000000,
#GOGOSTART
3011201022112020,
2211202210221011,
1010201011221020,
1010221120112020,
1012101020112010,
2022101020102010,
1011102121221122,
121211221212
#GOGOEND
1122,
#GOGOSTART
2011201020112010,
2011201022112020,
1110111011102022,
1011202211222020,
4011202210102020,
1110202020104030,
0000212122112211,
2121221211121211,
#GOGOEND
20022001,
20022021,
1210102000201210,
12012211,
1210102000201210,
1020202220102020,
2022102010102022,
100000100000100200100100200000200000202020100100,
2011102011102011,
12201020,
#MEASURE 8/4
#SCROLL 0.5
1210101120201020,
12120122,
2220202220202221,
1020102100201020,
2220201220211021,
11120212,
#MEASURE 2/4
1002,
#MEASURE 1/16
#SCROLL 0.5
1,
#SCROLL 0.733333
0,
#SCROLL 0.966667
0,
#SCROLL 1.2
0,
#SCROLL 1.43333
0,
#SCROLL 1.66667
0,
#SCROLL 1.9
0,
#SCROLL 2.13333
0,
#SCROLL 2.36667
0,
#SCROLL 2.6
0,
#SCROLL 2.83333
0,
#SCROLL 3.06667
0,
#SCROLL 3.3
0,
#SCROLL 3.53333
0,
#SCROLL 3.76667
0,
#SCROLL 4
0,
#MEASURE 2/4
00,
#MEASURE 4/4
#GOGOSTART
#SCROLL 1
3011221022112020,
2211202210221011,
1010221011221020,
1010221121112020,
1012101022112010,
2022101022112010,
1011102121221122,
121211221212
#GOGOEND
1122,
#GOGOSTART
2011201022112010,
2211201022112020,
1110111011102022,
1011202211222020,
4011202210112020,
1110202020104030,
0000212122112211,
2121221211121211,
#GOGOEND
20022001,
10022000,
1210102000201210,
12222222,
1210102000101210,
14000000,
#END