Files
Colins_Custom_Charts/03 VOCALOID/OnAndOn/OnAndOn.tja
T
2025-12-20 15:52:49 -05:00

468 lines
4.7 KiB
Plaintext

TITLE:On&On
SUBTITLE:--Mellowcle feat. MEIKO
TITLEJA:On&On
SUBTITLEJA:めろくる feat. MEIKO
PREIMAGE:OnAndOn.png
WAVE:OnAndOn.ogg
BPM:126
OFFSET:-1.939
DEMOSTART:65.867
GENRE:ボーカロイド
MAKER:Colin
COURSE:Easy
LEVEL:2
SCOREINIT:
SCOREDIFF:
NOTESDESIGNER0:Colin
#START
,
#GOGOSTART
3010,
1110,
2020,
2220,
1010,
1110,
1010,
,
#GOGOEND
4,
,
1010,
1,
2020,
2,
10001005,
0008,
3010,
1,
2022,
2020,
1010,
1110,
1010,
1,
2,
2,
20050000,
,
8010,
1110,
10000003,
00030000,
,
#GOGOSTART
3010,
1110,
2020,
2220,
1010,
1110,
3,
#MEASURE 1/16
#GOGOEND
#SCROLL 0.5
0,
#SCROLL 0.59375
0,
#SCROLL 0.6875
0,
#SCROLL 0.78125
0,
#SCROLL 0.875
0,
#SCROLL 0.96875
0,
#SCROLL 1.0625
0,
#SCROLL 1.15625
0,
#SCROLL 1.25
0,
#SCROLL 1.34375
0,
#SCROLL 1.4375
0,
#SCROLL 1.53125
0,
#SCROLL 1.625
0,
#SCROLL 1.71875
0,
#SCROLL 1.8125
0,
#SCROLL 1.90625
0,
#MEASURE 4/4
#GOGOSTART
#SCROLL 1
3
#SCROLL 1
000000010000000,
1110,
2020,
2220,
1010,
1110,
2020,
2220,
3010,
1,
2020,
2220,
#GOGOEND
2,
,
2,
2,
#END
COURSE:Normal
LEVEL:2
SCOREINIT:
SCOREDIFF:
NOTESDESIGNER1:Colin
#START
,
#GOGOSTART
3011,
10111000,
2022,
20222000,
1011,
10111000,
1010,
,
#GOGOEND
4,
,
1011,
1,
2022,
2020,
10111015,
0008,
30001011,
1110,
20002022,
2220,
1010,
10111000,
1010,
1110,
2020,
2220,
20250000,
,
80001011,
1110,
10001003,
00030000,
,
#GOGOSTART
3110,
10111000,
2220,
20222000,
1110,
10111000,
3,
#MEASURE 1/16
#GOGOEND
#SCROLL 0.5
0,
#SCROLL 0.59375
0,
#SCROLL 0.6875
0,
#SCROLL 0.78125
0,
#SCROLL 0.875
0,
#SCROLL 0.96875
0,
#SCROLL 1.0625
0,
#SCROLL 1.15625
0,
#SCROLL 1.25
0,
#SCROLL 1.34375
0,
#SCROLL 1.4375
0,
#SCROLL 1.53125
0,
#SCROLL 1.625
0,
#SCROLL 1.71875
0,
#SCROLL 1.8125
0,
#SCROLL 1.90625
0,
#MEASURE 4/4
#GOGOSTART
#SCROLL 1
3
#SCROLL 1
000000010001010,
1110,
20002022,
2220,
10001011,
1110,
20002022,
2220,
30001011,
1,
20002022,
2220,
#GOGOEND
2,
,
2,
2,
#END
COURSE:Hard
LEVEL:4
SCOREINIT:
SCOREDIFF:
NOTESDESIGNER2:Colin
#START
0004,
#GOGOSTART
30201120,
1212,
10201120,
1212,
10201120,
1212,
10201120,
4004004004004000,
#GOGOEND
3,
000000000000000100202000,
10201120,
100105000800,
10221011,
20102222,
10201021,
01250810,
1001000010010000,
1001005000008000,
2121,
21212000,
2002000020020000,
2002005000008000,
10201120,
1212,
10020222,
22250081,
10110106,
,
80010212,
11220002,
10210103,
00030000,
,
#GOGOSTART
32101212,
02508012,
12101212,
02200121,
21201212,
02100121,
1,
#MEASURE 1/16
#GOGOEND
#SCROLL 0.5
0,
#SCROLL 0.59375
0,
#SCROLL 0.6875
0,
#SCROLL 0.78125
0,
#SCROLL 0.875
0,
#SCROLL 0.96875
0,
#SCROLL 1.0625
0,
#SCROLL 1.15625
0,
#SCROLL 1.25
0,
#SCROLL 1.34375
0,
#SCROLL 1.4375
0,
#SCROLL 1.53125
0,
#SCROLL 1.625
0,
#SCROLL 1.71875
0,
#SCROLL 1.8125
0,
#SCROLL 1.90625
0,
#MEASURE 4/4
#GOGOSTART
#SCROLL 2
3
#SCROLL 1
000200010102010,
01210121,
00120212,
01210121,
00120021,
01210121,
00120021,
21000000,
10201120,
10210122,
10201120,
10210122,
#GOGOEND
1202,
1202,
1202,
1200,
#END
COURSE:Oni
LEVEL:8
SCOREINIT:
SCOREDIFF:
NOTESDESIGNER3:Colin
#START
000000000000000102200100,
#GOGOSTART
#SCROLL 1.3
300100200201100100200100,
100100200202102201200100,
100100200201100100200100,
100100200202102201200100,
300100200201100100200100,
100100200202102201200100,
100100200201100100202100,
201102001201002101200200,
#MEASURE 4/16
#GOGOEND
3,
,
,
,
,
,
#BARLINEOFF
01,
202101,
#MEASURE 4/4
#BARLINEON
100100200202100102202002,
100100201002100100200202,
100100200100200200201001,
100200201200100100202002,
100100202200100100201100,
100100200101100100200202,
100102200200100101200200,
100102200200100102102100,
100101200201200201001001,
002102200200102100200202,
100101200200100101200200,
100100200102101100202200,
100100200100200201202100,
343
#SCROLL 1.5
4,
#SCROLL 1.3
3
#SCROLL 1
00000000100000100100200,
12250081,
10230306,
0008,
42012211,
11250082,
1021010
#SCROLL 1.1
3,
000
#SCROLL 1.2
30000,
000000000000000102200200,
#GOGOSTART
#SCROLL 1.3
300101200100100101200100,
100101200200102001200200,
300101200100100101200100,
100101200200102001200200,
300101200100100101200100,
100101200200102001200200,
202001002002100100200100,
#MEASURE 1/16
#GOGOEND
#SCROLL 0.5
3,
#SCROLL 0.59375
0,
#SCROLL 0.6875
0,
#SCROLL 0.78125
0,
#SCROLL 0.875
0,
#SCROLL 0.96875
0,
#SCROLL 1.0625
0,
#SCROLL 1.15625
0,
#SCROLL 1.25
0,
#SCROLL 1.34375
0,
#SCROLL 1.4375
0,
#SCROLL 1.53125
0,
#SCROLL 1.625
0,
#SCROLL 1.71875
0,
#SCROLL 1.8125
0,
#SCROLL 1.90625
0,
#MEASURE 4/4
#GOGOSTART
#SCROLL 2
300
#SCROLL 1.3
000100010200000100010100010000010200000100000,
100101202200102001200200,
300101200101101001200100,
100101200200102001202200,
300101200101100101200100,
100101200202102001202200,
300101200100100101200100,
201102001201002101200200,
300201200200100101200202,
100100200202102101200202,
100101200202100100200202,
100101200202101101200200,
#GOGOEND
1212,
1212,
1212,
1210,
#END