Files
Colins_Custom_Charts/03 VOCALOID/SanKyuu/SanKyuu.tja
T
2025-12-20 15:52:49 -05:00

513 lines
4.7 KiB
Plaintext

TITLE:39
SUBTITLE:--sasakure.UK & DECO*27 feat. Miku Hatsune
TITLEJA:39
SUBTITLEJA:sasakure.UK✕DECO*27 feat. 初音ミク
PREIMAGE:SanKyuu.png
BGMOVIE:SanKyuu.mp4
WAVE:SanKyuu.ogg
BPM:175
OFFSET:-0.031
DEMOSTART:104.602
MAKER:Colin
COURSE:Easy
LEVEL:4
SCOREINIT:
SCOREDIFF:
NOTESDESIGNER0:Colin
#START
#MEASURE 5/4
20000,
,
1000100011,
10010,
10011,
#MEASURE 7/4
1001010,
#MEASURE 4/4
1010,
1110,
1010,
1110,
1010,
1011,
#MEASURE 3/4
100100,
100100,
#MEASURE 4/4
2020,
2220,
2020,
2220,
2020,
2220,
#MEASURE 7/4
20020020202222,
#MEASURE 4/4
2020,
2020,
1010,
1010,
1010,
1011,
5,
#MEASURE 7/8
8000000,
#MEASURE 9/8
100010101,
#MEASURE 4/4
10101001,
10001011,
1110,
20222025,
,
#MEASURE 7/8
0000000,
#MEASURE 9/8
800000040,
#MEASURE 4/4
30001011,
1110,
20222020,
2220,
1110,
3,
2020,
2020,
2020,
2020,
2020,
2020,
2020,
2,
1110,
10111000,
1110,
10111000,
1110,
10101011,
5,
8,
,
3,
3,
3,
3,
3,
3030,
3,
3,
1110,
10111000,
1110,
10111000,
1110,
1,
20222020,
20222020,
2020,
2220,
10111010,
10010115,
,
,
80002022,
2220,
20222020,
2220,
2022,
4,
#MEASURE 5/4
1000101110,
0110001000,
1001101010,
01011,
#MEASURE 2/4
10,
#MEASURE 5/4
30000,
,
,
,
#MEASURE 2/4
00,
#END
COURSE:Normal
LEVEL:4
SCOREINIT:
SCOREDIFF:
NOTESDESIGNER1:Colin
#START
#MEASURE 5/4
20000,
,
10101,
00010,
10000,
#MEASURE 7/4
0001010,
#MEASURE 4/4
1,
1010,
1,
1,
1,
1010,
#MEASURE 3/4
100,
100,
#MEASURE 4/4
2,
2,
2020,
2,
2,
2020,
#MEASURE 7/4
2000202,
#MEASURE 4/4
2020,
2,
1010,
1,
1010,
1,
5,
#MEASURE 7/8
8000000,
#MEASURE 9/8
100010000,
#MEASURE 4/4
1110,
1010,
1110,
20002005,
,
#MEASURE 7/8
0000000,
#MEASURE 9/8
800000040,
#MEASURE 4/4
3010,
1110,
2020,
2220,
1010,
3,
2,
2020,
2,
2,
2,
2,
2020,
2,
1010,
1,
1010,
1,
1110,
1110,
5,
8,
,
3,
3,
3,
3,
3,
3,
3,
3,
1010,
1,
1010,
1,
1010,
1,
2020,
2220,
2020,
2220,
1010,
10010105,
,
,
8020,
2220,
2020,
2220,
2020,
4,
#MEASURE 5/4
10011,
01010,
10011,
01010,
#MEASURE 2/4
10,
#MEASURE 5/4
30000,
,
,
,
#MEASURE 2/4
00,
#END
COURSE:Hard
LEVEL:4
SCOREINIT:
SCOREDIFF:
NOTESDESIGNER2:Colin
#START
#MEASURE 5/4
2001002001,
0020010202,
1010200002,
0120000211,
2010200002,
#MEASURE 7/4
01200002112200,
#MEASURE 4/4
30022202,
02020120,
00020202,
02020100,
00022201,
01010220,
#MEASURE 3/4
300400,
400303,
#MEASURE 4/4
30011102,
02020110,
00022202,
02020200,
00012101,
02020210,
#MEASURE 7/4
20121201012222,
#MEASURE 4/4
1011,
2022,
1010,
20002122,
10112011,
02210200,
5008,
#MEASURE 7/8
4404040,
#MEASURE 9/8
111110201,
#MEASURE 4/4
01110201,
11110201,
10110102,
22220202,
02020205,
#MEASURE 7/8
0000000,
#MEASURE 9/8
801110140,
#MEASURE 4/4
30022002,
10022002,
20021002,
2222,
20011001,
2,
1020,
11012000,
1020,
11012020,
1020,
11012000,
1120,
11012020,
10012001,
10102001,
1120,
10112020,
10200120,
10200120,
10201122,
33030300,
,
3,
3,
3,
3,
3,
3030,
3,
3004,
30011002,
10022002,
20021002,
2222,
20011001,
5008,
11110201,
11110201,
11110101,
11110202,
02220201,
01010105,
,
0080,
20112010,
20112010,
20112010,
20112010,
20112010,
4,
#MEASURE 5/4
2201102202,
1020222202,
2021012021,
0220220220,
#MEASURE 2/4
20,
#MEASURE 5/4
2001002001,
0020010201,
2001002001,
0020010020,
#MEASURE 2/4
0100,
#END
COURSE:Oni
LEVEL:7
SCOREINIT:
SCOREDIFF:
NOTESDESIGNER3:Colin
#START
#MEASURE 5/4
2001002001,
0020010202,
1111221112,
2122212211,
2211212222,
#MEASURE 7/4
11221112112100,
#MEASURE 4/4
30022202,
02020120,
10220202,
02021202,
10022201,
01010210,
#MEASURE 3/4
401110401110,
401110400040,
#MEASURE 4/4
30012102,
02020110,
10221202,
02121202,
10112101,
02020110,
#MEASURE 7/4
3000201000201000101120102020,
#MEASURE 4/4
30012020,
20012020,
20102011,
2000201120102020,
20112102,
12212212,
10112222,
#MEASURE 7/8
4404040,
#MEASURE 9/8
#GOGOSTART
401110202000400020,
#MEASURE 4/4
1011202000400020,
2011202000400010,
2011203000400020,
2011204000400040,
03040403,
#MEASURE 7/8
0121212,
#MEASURE 9/8
100011202000104000,
#MEASURE 4/4
3000201120101020,
1000201110102010,
1010201110102010,
2011201020112000,
3010201110102020,
#GOGOEND
4,
30002002,
12012020,
10112101,
20112120,
10112120,
1000101020002011,
20202121,
1000101120102020,
1020201020120120,
2020201021022010,
2020201020220220,
12012120,
1010201110102000,
1010201110102000,
30112222,
33040300,
00000002,
42220202,
32220202,
42220201,
42210202,
32220202,
32023201,
6008,
32220140,
30122012,
1022102020102020,
20221122,
20212120,
1011101110201010,
2012102011201012,
#GOGOSTART
1011202000302010,
1022202010400020,
2020201110102010,
12210221,
22220121,
1011201010112010,
1010201110102010,
2010201020112211,
2011201020112010,
2011201020112010,
2011201020112010,
2011201020112010,
2011201020112010,
#GOGOEND
4,
#MEASURE 5/4
#GOGOSTART
2221112221,
1122121212,
2221112221,
1122211122,
#MEASURE 2/4
22112222,
#MEASURE 5/4
#GOGOEND
2001002001,
0020010202,
2121212121,
2121212121,
#MEASURE 2/4
2121,
#END