Files
Colins_Custom_Charts/03 VOCALOID/Shun-ran/Shun-ran.tja
T
2025-12-20 15:52:49 -05:00

246 lines
2.8 KiB
Plaintext

TITLE:Shun-ran
SUBTITLE:--john (TOOBOE) feat. Miku Hatsune
TITLEJA:春嵐
SUBTITLEJA:john (TOOBOE) feat. 初音ミク
PREIMAGE:Shun-ran.png
BGMOVIE:Shun-ran.mp4
WAVE:Shun-ran.ogg
BPM:140
OFFSET:-0.083
DEMOSTART:36.083
MAKER:Colin
SKIN:3
CATEGORY:3
COURSE:Easy
LEVEL:2
SCOREINIT:
SCOREDIFF:
NOTESDESIGNER0:Colin
#START
,
#GOGOSTART
1010,
1110,
2020,
2220,
1010,
1110,
2020,
2220,
#GOGOEND
1010,
1,
2020,
2,
1010,
1110,
2020,
2,
1110,
1110,
1110,
1011,
#GOGOSTART
3003,
0300,
3,
3,
3003,
0300,
3,
3,
#GOGOEND
4040,
4440,
#GOGOSTART
3003,
0300,
3,
3,
3003,
0300,
3,
3,
4040,
4440,
4040,
#GOGOEND
4440,
#END
COURSE:Normal
LEVEL:4
SCOREINIT:
SCOREDIFF:
NOTESDESIGNER1:Colin
#START
,
#GOGOSTART
1010,
10111000,
2020,
20222000,
1010,
10111000,
2020,
20222000,
#GOGOEND
1110,
1110,
2220,
20222020,
1010,
10111000,
2220,
2220,
10101110,
10101110,
10101110,
1111,
#GOGOSTART
3000100100003001,
0000300100000000,
3212,
3012,
3000000100003001,
0000300100000000,
3210,
3211,
#GOGOEND
40204022,
4440,
#GOGOSTART
3000100100003001,
0000300100000000,
3212,
30001011,
3103,
2310,
3210,
3110,
4040,
4440,
4040,
#GOGOEND
40444000,
#END
COURSE:Hard
LEVEL:4
SCOREINIT:
SCOREDIFF:
NOTESDESIGNER2:Colin
#START
1000101022022020,
#GOGOSTART
1000101100100000,
2000202020020020,
0000100200100000,
2000202020020020,
1000200200200000,
1000101011010010,
0000200200200000,
2000202020020020,
#GOGOEND
10201120,
10201120,
10201120,
10201120,
10201120,
10201120,
1000200010102022,
2020200020201110,
1020202020222220,
0020202020222220,
0020202022222020,
1010110202022020,
#GOGOSTART
3000110100201102,
0020110200202020,
1001010202001000,
2002002020202010,
3000110100201102,
0020110200202020,
1000100202001000,
20222221,
#GOGOEND
11122222,
11111000,
#GOGOSTART
3000110100201102,
0020110200202020,
1001010202001000,
2002002020202010,
3000110100201102,
0020110200202020,
1000100202001000,
20222221,
11122222,
11111000,
22221111,
#GOGOEND
2020202020020020,
#END
COURSE:Oni
LEVEL:8
SCOREINIT:
SCOREDIFF:
NOTESDESIGNER3:Colin
#START
1000102012012122,
#GOGOSTART
1022111201201120,
2010201021012022,
1022111201201120,
2010201020212210,
3022111201201120,
2010201021012022,
1022111201201120,
2010201020212210,
#GOGOEND
1022112222020122,
0122222200010011,
2120120200221120,
2222112122221120,
2121121212010222,
0011222200010121,
2210120101101122,
2221221211212211,
2020201010121120,
1011201020221122,
1021202011212010,
1110110202022022,
#GOGOSTART
2011222101201122,
0120111201122220,
1021212202221120,
1021012120222210,
2012221201102121,
0120222202111210,
2121221202112122,
1211012220221121,
#GOGOEND
2010222210201122,
2010222211112222,
#GOGOSTART
2021221101201122,
0120111102222220,
1021212202221120,
1021012120222210,
2012221201202112,
0120222202111210,
2121221202112022,
1211012220221121,
2010222210201122,
2010222211112222,
2010222210201122,
#GOGOEND
2010222211010120,
#END