generated from DragonRatTiger/Custom-Charts
386 lines
4.0 KiB
Plaintext
386 lines
4.0 KiB
Plaintext
TITLE:Snowman
|
||
SUBTITLE:--halyosy feat. KAITO / Miku Hatsune:Project Mirai 2
|
||
TITLEJA:スノーマン
|
||
SUBTITLEJA:halyosy feat. KAITO 「初音ミク Project mirai 2」より
|
||
BGMOVIE:Snowman.mp4
|
||
PREIMAGE:Snowman.png
|
||
BPM:127
|
||
OFFSET:-0.030
|
||
DEMOSTART:113.415
|
||
WAVE:Snowman.ogg
|
||
MAKER:Colin
|
||
|
||
COURSE:Oni
|
||
LEVEL:8
|
||
BALLOON:
|
||
SCOREINIT:
|
||
SCOREDIFF:
|
||
NOTESDESIGNER3:Colin
|
||
|
||
#START
|
||
2002001020020010,
|
||
2002002050008011,
|
||
1012001010120000,
|
||
3022101021112111,
|
||
#GOGOSTART
|
||
2101201012012020,
|
||
1101202010112020,
|
||
1101202011011020,
|
||
1101112021112111,
|
||
2011212010201020,
|
||
1011212021103020,
|
||
4011221010112020,
|
||
1121212011212022,
|
||
1011212010212020,
|
||
2112201021112111,
|
||
#GOGOEND
|
||
2011121010112211,
|
||
2012021020201210,
|
||
1012112010201010,
|
||
1011021020112011,
|
||
1020121020110110,
|
||
2022012010221022,
|
||
1011121010102210,
|
||
1012021221112011,
|
||
1010112010112210,
|
||
1022102010220120,
|
||
2010102010112220,
|
||
1012202010112000,
|
||
3021021021112111,
|
||
#GOGOSTART
|
||
2101201012012020,
|
||
1101202010112020,
|
||
1101202011011020,
|
||
1101112021112111,
|
||
2101201012012020,
|
||
1101202010112020,
|
||
1101202011011020,
|
||
1101112021112111,
|
||
2011212010201020,
|
||
1011212021112111,
|
||
#GOGOEND
|
||
2012012012212222,
|
||
1011212012112020,
|
||
2011221121112022,
|
||
1021221121012022,
|
||
1021221021112122,
|
||
2011212220112010,
|
||
2011201120112210,
|
||
1011212010112120,
|
||
2112212011112222,
|
||
1122112120212010,
|
||
2011222020112210,
|
||
1021212010112120,
|
||
4011221030112020,
|
||
3003003040004000,
|
||
1102002011020020,
|
||
2101002010102000,
|
||
1112001011120020,
|
||
2010220220222022,
|
||
1121221021212020,
|
||
2121221120112022,
|
||
1221221121212020,
|
||
1011212120112010,
|
||
3040303021112111,
|
||
#GOGOSTART
|
||
2101201012012020,
|
||
1101202010112020,
|
||
1101202011011020,
|
||
1101112021112111,
|
||
2101201012012020,
|
||
1101202010112020,
|
||
1101202011011020,
|
||
1101112021112111,
|
||
2011212010201020,
|
||
1011212021112111,
|
||
2011221010112020,
|
||
1121212011212022,
|
||
1011212010212020,
|
||
210122103000
|
||
#GOGOEND
|
||
4000,
|
||
#END
|
||
|
||
|
||
|
||
COURSE:Hard
|
||
LEVEL:5
|
||
BALLOON:
|
||
SCOREINIT:
|
||
SCOREDIFF:
|
||
NOTESDESIGNER2:Colin
|
||
|
||
#START
|
||
2002002020020020,
|
||
2002002050008000,
|
||
2002002010020000,
|
||
3003003040003000,
|
||
#GOGOSTART
|
||
1102002011010000,
|
||
1102002010101000,
|
||
1102002011010000,
|
||
1102002010101000,
|
||
11201122,
|
||
3333,
|
||
4002002010020010,
|
||
1002002050008000,
|
||
2002002010020010,
|
||
1002002050008000,
|
||
#GOGOEND
|
||
1010100010010000,
|
||
1011010500008000,
|
||
11111122,
|
||
1011010500008000,
|
||
1010100010110110,
|
||
1001010500008000,
|
||
22222222,
|
||
1001010500008000,
|
||
22222222,
|
||
22222002,
|
||
02222222,
|
||
20022000,
|
||
3003003030003000,
|
||
#GOGOSTART
|
||
1102002011010000,
|
||
1102002010101000,
|
||
1102002011010000,
|
||
1102002010101000,
|
||
1102002011010000,
|
||
1102002010101000,
|
||
1102002011010000,
|
||
11221010,
|
||
10011111,
|
||
3333,
|
||
#GOGOEND
|
||
3003003003003030,
|
||
1010200011102010,
|
||
2000111020002020,
|
||
1010200011102000,
|
||
3003003030030030,
|
||
11202222,
|
||
2000201110101010,
|
||
10022222,
|
||
1001001010001000,
|
||
1110200010110010,
|
||
2022202020222020,
|
||
12222020,
|
||
3003003030030030,
|
||
3003003040004000,
|
||
2,
|
||
2,
|
||
2020,
|
||
2,
|
||
2020,
|
||
2,
|
||
2020,
|
||
2,
|
||
3033,
|
||
#GOGOSTART
|
||
1102002011010000,
|
||
1102002010101000,
|
||
1102002011010000,
|
||
1102002010101000,
|
||
1102002011010000,
|
||
1102002010101000,
|
||
1102002011010000,
|
||
1102002010101000,
|
||
4022,
|
||
2222,
|
||
6,
|
||
8060,
|
||
,
|
||
800
|
||
#GOGOEND
|
||
3,
|
||
#END
|
||
|
||
|
||
|
||
COURSE:Normal
|
||
LEVEL:3
|
||
BALLOON:30
|
||
SCOREINIT:
|
||
SCOREDIFF:
|
||
NOTESDESIGNER1:Colin
|
||
|
||
#START
|
||
2022,
|
||
2020,
|
||
2022,
|
||
3434,
|
||
#GOGOSTART
|
||
10101110,
|
||
10101110,
|
||
10101110,
|
||
1111,
|
||
10001011,
|
||
1014,
|
||
4010,
|
||
1020,
|
||
1010,
|
||
1111,
|
||
#GOGOEND
|
||
2020,
|
||
2010,
|
||
2021,
|
||
2020,
|
||
1210,
|
||
1210,
|
||
1210,
|
||
1220,
|
||
2010,
|
||
2010,
|
||
2010,
|
||
2020,
|
||
33333000,
|
||
#GOGOSTART
|
||
10101110,
|
||
10101110,
|
||
10101110,
|
||
10101110,
|
||
10101110,
|
||
10101110,
|
||
10101110,
|
||
10111010,
|
||
1020,
|
||
2222,
|
||
#GOGOEND
|
||
4,
|
||
7,
|
||
,
|
||
8222,
|
||
1212,
|
||
1011,
|
||
10111110,
|
||
1010,
|
||
1111,
|
||
2020,
|
||
2220,
|
||
2222,
|
||
1020,
|
||
1020,
|
||
1020,
|
||
1020,
|
||
1020,
|
||
1020,
|
||
1020,
|
||
1011,
|
||
1011,
|
||
1,
|
||
3,
|
||
#GOGOSTART
|
||
1212,
|
||
10111010,
|
||
1212,
|
||
10101110,
|
||
1212,
|
||
10101110,
|
||
2222,
|
||
20202220,
|
||
2020,
|
||
2020,
|
||
6,
|
||
8060,
|
||
,
|
||
800
|
||
#GOGOEND
|
||
3,
|
||
#END
|
||
|
||
|
||
COURSE:Easy
|
||
LEVEL:1
|
||
BALLOON:20
|
||
SCOREINIT:
|
||
SCOREDIFF:
|
||
NOTESDESIGNER0:Colin
|
||
|
||
#START
|
||
2020,
|
||
2020,
|
||
2020,
|
||
3030,
|
||
#GOGOSTART
|
||
1010,
|
||
1,
|
||
1010,
|
||
1,
|
||
1010,
|
||
1004,
|
||
4,
|
||
1,
|
||
1010,
|
||
1,
|
||
#GOGOEND
|
||
2020,
|
||
2,
|
||
2020,
|
||
2,
|
||
1010,
|
||
1,
|
||
1010,
|
||
1,
|
||
2,
|
||
2,
|
||
2,
|
||
2,
|
||
4440,
|
||
#GOGOSTART
|
||
1010,
|
||
1,
|
||
1010,
|
||
1,
|
||
1010,
|
||
1,
|
||
1010,
|
||
1010,
|
||
1,
|
||
2020,
|
||
#GOGOEND
|
||
4,
|
||
7,
|
||
,
|
||
8,
|
||
1010,
|
||
1,
|
||
1,
|
||
1,
|
||
1010,
|
||
2020,
|
||
2020,
|
||
2,
|
||
1,
|
||
1,
|
||
1,
|
||
1,
|
||
1,
|
||
1010,
|
||
1,
|
||
1,
|
||
1010,
|
||
1,
|
||
3,
|
||
#GOGOSTART
|
||
1010,
|
||
1,
|
||
1010,
|
||
1,
|
||
1010,
|
||
1,
|
||
2020,
|
||
2002,
|
||
2,
|
||
2020,
|
||
6,
|
||
8060,
|
||
,
|
||
800
|
||
#GOGOEND
|
||
3,
|
||
#END
|
||
|
||
|
||
|
||
|
||
|