Files
Colins_Custom_Charts/03 VOCALOID/Soul/Soul.tja
T
2025-12-20 15:52:49 -05:00

1148 lines
12 KiB
Plaintext

TITLE:Ψυχή
SUBTITLE:--Mizore feat. YAI
TITLEJA:Ψυχή
SUBTITLEJA:霄 feat. ヤイ
BPM:125
OFFSET:-0.644
BGMOVIE:Soul.mp4
DEMOSTART:106.753
PREIMAGE:Soul.png
WAVE:Soul.ogg
MAKER:Colin & bol
COURSE:Edit
LEVEL:10
BALLOON:8,2,2,2,5,2
SCOREINIT:500
SCOREDIFF:
NOTESDESIGNER4:bol
#START
22212211
#BPMCHANGE 255
#SCROLL 0.796078
1000
#BPMCHANGE 203
#SCROLL 1
2000,
#MEASURE 5/4
#GOGOSTART
30222022102011201120,
10112022102011201122,
10222022102011201222,
#GOGOEND
20112011201022122012,
#GOGOSTART
10222022102011201120,
10112022102011201122,
10222022102011201222,
#MEASURE 6/4
102110201220200022112000,
#MEASURE 3/4
#GOGOEND
#SCROLL 0.75
100012102010,
200021112000,
100000200011,
200021212222,
100022100021,
200021112000,
100021100011,
#MEASURE 2/4
12112000,
#MEASURE 3/4
#GOGOSTART
#SCROLL 1
122122100022,
102022121020,
122122100022,
102021121020,
122122100022,
102022121020,
102012102012,
#MEASURE 2/4
12212212,
#MEASURE 4/4
#GOGOEND
#SCROLL 0.75
10002201,
2122,
#MEASURE 3/4
102102,
708,
122122,
122122,
122122,
121121,
102,
212,
102102,
100000000000
#SCROLL 1
100100100100200000202020,
#GOGOSTART
122122121222,
122122121222,
112112121222,
#MEASURE 4/4
122122
#GOGOEND
1210002000,
#GOGOSTART
1011101011112010,
1011201210112012,
1022102011201020,
1111201122112012,
1011201211112012,
1011202210112012,
1022102211201020,
1011201122102222,
1011201211112012,
1011201210112012,
1110222022102120,
1210212012112210,
2111211121112111,
#GOGOEND
20787878,
#MEASURE 3/4
101120102110,
211121112000,
#MEASURE 5/4
#GOGOSTART
30222022102011201120,
10112022102011201122,
10222022102011201222,
#GOGOEND
20112011201022122012,
#GOGOSTART
10222022102011201120,
10112022102011201122,
102220221020112012
#GOGOEND
22,
#MEASURE 6/4
#GOGOSTART
12
#GOGOEND
2122
#GOGOSTART
12
#GOGOEND
1120
#GOGOSTART
12
#GOGOEND
2122
#GOGOSTART
12
#GOGOEND
1120,
#MEASURE 5/4
#GOGOSTART
30222022102011201120,
10112022102011201122,
10222022102011201222,
#GOGOEND
20112011201022122012,
#GOGOSTART
10222022102011201120,
10112022102011201122,
10222022102011201222,
#MEASURE 6/4
102110201220
#GOGOEND
200020000000,
#MEASURE 4/4
#BARLINEOFF
#SCROLL 0.75
3000200000102220,
#MEASURE 3/4
#GOGOSTART
#BARLINEON
#SCROLL 1
100022221000,
122122100022,
102021121020,
122122102012,
102022121020,
102022102022,
122012101120,
122122121222,
122122121222,
112112121222,
#MEASURE 4/4
#GOGOEND
10027008,
#GOGOSTART
1011201110112012,
1011202210112012,
1011202211102022,
1110201122102212,
1011201110112012,
1011202210112012,
100000100100200000200200100100100000200020200000,
#GOGOEND
12212210
#SCROLL 0.5
5080
#SCROLL 1
1222,
12212210
#SCROLL 0.5
7080
#SCROLL 2
6080,
#GOGOSTART
#SCROLL 1
1011101011112010,
1011201210112012,
1022102011201020,
1111201122112012,
1011201211112012,
1011202210112012,
1022102211201020,
1011201122112222,
1011201212112012,
1011201210112012,
1110222022102120,
1210212012112210,
1011202210112022,
1110202212102022,
1111201211112012,
1110202122112110,
1110201210221120,
1110111022202220,
1110201110201120,
1110222012102120,
1022101022101020,
1210212012112210,
1111222011112220,
1111222211112222,
#MEASURE 5/4
#GOGOEND
11112011122011220011,
#GOGOSTART
200020001000100020002000100010002000100200200000100100100000,
100010002000200010001000200020001000100200100000200100200000,
200020001000100020002000100010002000100200200000100100100000,
110110220220220110220220110220,
200020001000100020002000100010002000100200200000100100100000,
100010002000200010001000200020001000100200100000200100200000,
200020001000100020002000100010002000100000101020
#GOGOEND
100100200000,
#GOGOSTART
101000101000202000202000202000101000202000000020
#GOGOEND
100100100100,
#GOGOSTART
11222011222011201120,
1121201121201121122
#GOGOEND
2,
0003000000,
,
,
00000000000000
#SCROLL 0.75
5080
#SCROLL 0.5
58,
,
#END
COURSE:Oni
LEVEL:10
BALLOON:60
SCOREINIT:660
SCOREDIFF:
NOTESDESIGNER3:Colin
#START
21112111
#BPMCHANGE 255
#SCROLL 0.490196
2000
#BPMCHANGE 203
#SCROLL 0.615764
2000,
#MEASURE 5/4
#GOGOSTART
#SCROLL 1
10112010202210102022,
10102011202010201122,
10112010202210102022,
#GOGOEND
10221010102020201022,
#GOGOSTART
10112010202210102022,
10102011202010201122,
10102011202010102020,
#MEASURE 6/4
111122221111201040102222,
#MEASURE 3/4
#GOGOEND
101100,
122,
102101,
200010001111,
201101,
102,
101101,
#MEASURE 2/4
22112000,
#MEASURE 3/4
#GOGOSTART
300300302030,
301120102222,
100300302020,
301022112011,
200300401111,
201022112010,
111020111020,
#MEASURE 2/4
30030030,
#MEASURE 4/4
#GOGOEND
40002002,
1212,
#MEASURE 3/4
101202,
100210,
400100,
100100,
200100,
101202,
102,
122,
102101,
200011112000,
#GOGOSTART
400400403011,
202211112010,
400300304011,
#MEASURE 4/4
200400
#GOGOEND
4010001000,
#GOGOSTART
4011221120102011,
2022111120102011,
2010202212102022,
1010201120102222,
1010201120102022,
1010201211102011,
2010201120112010,
2011201022221111,
2011201020112010,
2011202211112010,
2011201122112011,
2010201120102022,
1010222211112222,
#GOGOEND
2,
#MEASURE 3/4
340344,
303330,
#MEASURE 5/4
#GOGOSTART
10112010202210102022,
10102011202010201122,
10112010202210102022,
#GOGOEND
10221010102020201022,
#GOGOSTART
10112010202210102022,
10102011202010201122,
101020112020101020
#GOGOEND
20,
#MEASURE 6/4
#GOGOSTART
30
#GOGOEND
0300
#GOGOSTART
40
#GOGOEND
0400
#GOGOSTART
30
#GOGOEND
0400
#GOGOSTART
30
#GOGOEND
0400,
#MEASURE 5/4
#GOGOSTART
30112010202210102022,
10102011202010201122,
10112010202210102022,
#GOGOEND
10221010102020201022,
#GOGOSTART
10112010202210102022,
10102011202010201122,
10102011202010102020,
#MEASURE 6/4
111122221010
#GOGOEND
200020000000,
#MEASURE 4/4
3000200000102222,
#MEASURE 3/4
#GOGOSTART
101120102211,
201202101101,
201202112010,
202101202011,
202101202222,
102101202222,
102101221111,
201120102222,
101120102010,
202210111120,
#MEASURE 4/4
#GOGOEND
2,
#GOGOSTART
3010201210102022,
1111201022112010,
2011201022112010,
2011201210112222,
1010201122112012,
1010221120102022,
1010201210102210,
#GOGOEND
4004003000002222,
2003003022221111,
#GOGOSTART
#SCROLL 1.2
2011221120102011,
2022111120102011,
2010202212102022,
1010201120102222,
1010201120102022,
1010201211102011,
2010201120112010,
2011201022221111,
2011201020112010,
2011202211112010,
2011201122112011,
2010201120102022,
1010201110102222,
1010201120102022,
1010201120102011,
2010202211112011,
2010201210102211,
2011201122102011,
2010201110102022,
1010201120102020,
1111201022112022,
1010201120102020,
1011201020102222,
1010201110102000,
#MEASURE 5/4
#GOGOEND
#SCROLL 1.19
40
#SCROLL 1.18
4000
#SCROLL 1.14
40
#SCROLL 1.13
4000
#SCROLL 1.12
40
#SCROLL 1.1
40
#SCROLL 1
0011,
#GOGOSTART
22221122111120112020,
11222020111120112022,
22221122111120112020,
11222020111120112022,
22221122111120112020,
11222020111120112022,
2222112211112011
#GOGOEND
2210,
#GOGOSTART
1122202011112011
#GOGOEND
2222,
#GOGOSTART
3223223232,
3020203020203020302
#GOGOEND
2,
0007000000,
,
,
000000000080000,
,
#END
COURSE:Hard
LEVEL:8
BALLOON:14
SCOREINIT:1000
SCOREDIFF:
NOTESDESIGNER2:bol
#START
7000
#BPMCHANGE 255
00
#BPMCHANGE 203
08,
#MEASURE 5/4
#GOGOSTART
3020201120,
1220221211,
1120201120,
#GOGOEND
2121222222,
#GOGOSTART
3020201120,
1220221211,
1120201120,
#MEASURE 6/4
122011202120,
#MEASURE 3/4
#GOGOEND
101220,
112,
100201,
200010002220,
102202,
212,
101200,
#MEASURE 2/4
1120,
#MEASURE 3/4
#GOGOSTART
100100100000,
122,
100100100020,
100220,
100100100000,
122,
102102,
#MEASURE 2/4
10010010,
#MEASURE 4/4
#GOGOEND
1,
,
#MEASURE 3/4
,
,
100100,
200200,
100200,
102102,
102,
112,
102102,
158,
#GOGOSTART
100100102220,
100100102220,
100100102220,
#MEASURE 4/4
100100
#GOGOEND
1010002000,
#GOGOSTART
1010200011102000,
1110200022202000,
1010200011102000,
1110200022202000,
1010200011102000,
1110200022202000,
1010200011102000,
1010201022202000,
1010200011102000,
1110200011102000,
1010200011102000,
1110200011102000,
21212121,
#GOGOEND
4,
#MEASURE 3/4
112121,
202210,
#MEASURE 5/4
#GOGOSTART
3020201120,
1220221211,
1120201120,
#GOGOEND
2121222222,
#GOGOSTART
3020201120,
1220221211,
112020112
#GOGOEND
0,
#MEASURE 6/4
#GOGOSTART
30
#GOGOEND
0300
#GOGOSTART
40
#GOGOEND
0400
#GOGOSTART
30
#GOGOEND
0400
#GOGOSTART
30
#GOGOEND
0400,
#MEASURE 5/4
#GOGOSTART
3020201120,
1220221211,
1120201120,
#GOGOEND
2121222222,
#GOGOSTART
3020201120,
1220221211,
1120201120,
#MEASURE 6/4
122012
#GOGOEND
202000,
#MEASURE 4/4
#BARLINEOFF
3002,
#MEASURE 3/4
#GOGOSTART
#BARLINEON
122,
100100100020,
100220,
100100100000,
122,
102102,
102202,
100010002220,
100010002220,
100020100011,
#MEASURE 4/4
#GOGOEND
10021000,
#GOGOSTART
1010201110102000,
1010201110202000,
1010201110102010,
1010201110202000,
1010201110102000,
1010201110202000,
1010201110102220,
#GOGOEND
3003003000002000,
3003003000000000,
#GOGOSTART
1010200011102000,
1110200022202000,
1010200011102000,
1110200022202000,
1010200011102000,
1110200022202000,
1010200011102000,
1010201022202000,
1010200011102000,
1110200022202000,
1010200011102000,
1110200022202000,
1010200011102000,
1110200022202000,
1010200011102000,
1110201022202000,
1110200011102000,
1110101022202020,
1110201000201020,
1110222010002000,
1110200011102000,
1110222010002000,
11221122,
1110202011102020,
#MEASURE 5/4
#GOGOEND
30000030000030000011,
#GOGOSTART
1101101020,
2202201020,
1101101020,
1122212212,
10100011100010002000,
20200022200010102000,
1010001110001000
#GOGOEND
2220,
#GOGOSTART
1010202010202000
#GOGOEND
1111,
#GOGOSTART
5000080000,
3000003000003000400
#GOGOEND
0,
0003000000,
,
,
,
,
#END
COURSE:Normal
LEVEL:4
BALLOON:15,12
SCOREINIT:4100
SCOREDIFF:
NOTESDESIGNER1:Colin
#START
#BARLINEOFF
#SCROLL 1.624
00
#BPMCHANGE 255
#SCROLL 0.796078
0
#BPMCHANGE 203
#SCROLL 1
0,
#MEASURE 5/4
#GOGOSTART
#BARLINEON
#SCROLL 1
11100,
11100,
11100,
#GOGOEND
2,
#GOGOSTART
22200,
22200,
22200,
#MEASURE 6/4
500008,
#MEASURE 3/4
#GOGOEND
1,
,
1,
,
1,
,
1,
#MEASURE 2/4
,
#MEASURE 3/4
#GOGOSTART
5,
,
,
008,
1,
1,
111,
#MEASURE 2/4
1,
#MEASURE 4/4
#GOGOEND
0,
,
#MEASURE 3/4
,
,
2,
2,
2,
202,
2,
2,
2,
2,
#GOGOSTART
101,
101,
1,
#MEASURE 4/4
100
#GOGOEND
00000,
#GOGOSTART
1110,
2220,
1210,
1110,
2222,
2022,
1111,
1011,
1010,
1011,
1010,
1022,
2,
#GOGOEND
1,
#MEASURE 3/4
1,
1,
#MEASURE 5/4
#GOGOSTART
11100,
11100,
11100,
#GOGOEND
2,
#GOGOSTART
11100,
11100,
101010000
#GOGOEND
0,
#MEASURE 6/4
#GOGOSTART
5
#GOGOEND
00
#GOGOSTART
0
#GOGOEND
00
#GOGOSTART
0
#GOGOEND
00
#GOGOSTART
0
#GOGOEND
00,
#MEASURE 5/4
#GOGOSTART
80100,
11100,
11100,
#GOGOEND
20202,
#GOGOSTART
10101,
11100,
11100,
#MEASURE 6/4
500
#GOGOEND
000,
#MEASURE 4/4
8,
#MEASURE 3/4
#GOGOSTART
1,
010,
101,
,
1,
1,
110,
1,
1,
1,
#MEASURE 4/4
#GOGOEND
1,
#GOGOSTART
7,
,
,
0008,
7,
,
,
#GOGOEND
8,
,
#GOGOSTART
1111,
1,
2222,
2,
1111,
1,
2222,
2,
1111,
1,
1111,
1,
2020,
2222,
2,
0111,
1,
1111,
5,
,
,
,
,
,
#MEASURE 5/4
#GOGOEND
8,
#GOGOSTART
3,
3,
3,
3,
3,
3,
#GOGOEND
3,
#GOGOSTART
#GOGOEND
3,
#GOGOSTART
3,
3000000000000000000
#GOGOEND
0,
,
,
,
,
,
#END
COURSE:Easy
LEVEL:3
BALLOON:12,6
SCOREINIT:7400
SCOREDIFF:
NOTESDESIGNER0:bol
#START
#BARLINEOFF
#SCROLL 1.624
00
#BPMCHANGE 255
#SCROLL 0.796078
0
#BPMCHANGE 203
#SCROLL 1
0,
#MEASURE 5/4
#GOGOSTART
#BARLINEON
#SCROLL 1
1,
1,
1,
#GOGOEND
2,
#GOGOSTART
1,
1,
1,
#MEASURE 6/4
0,
#MEASURE 3/4
#GOGOEND
2,
,
2,
,
2,
,
2,
#MEASURE 2/4
,
#MEASURE 3/4
#GOGOSTART
5,
,
,
,
,
,
,
#MEASURE 2/4
8,
#MEASURE 4/4
#GOGOEND
0,
,
#MEASURE 3/4
,
,
1,
1,
1,
,
,
1,
1,
1,
#GOGOSTART
2,
2,
2,
#MEASURE 4/4
200
#GOGOEND
00000,
#GOGOSTART
1,
1,
1010,
1,
1,
1,
1010,
1,
1,
1,
1010,
1,
1,
#GOGOEND
2,
#MEASURE 3/4
1,
1,
#MEASURE 5/4
#GOGOSTART
1,
1,
1,
#GOGOEND
2,
#GOGOSTART
1,
2,
100000000
#GOGOEND
0,
#MEASURE 6/4
#GOGOSTART
5
#GOGOEND
00
#GOGOSTART
0
#GOGOEND
00
#GOGOSTART
0
#GOGOEND
00
#GOGOSTART
0
#GOGOEND
00,
#MEASURE 5/4
#GOGOSTART
8,
1,
1,
#GOGOEND
1,
#GOGOSTART
1,
1,
1,
#MEASURE 6/4
200
#GOGOEND
200,
#MEASURE 4/4
1,
#MEASURE 3/4
#GOGOSTART
1,
020,
2,
2,
2,
2,
202,
,
2,
2,
#MEASURE 4/4
#GOGOEND
2,
#GOGOSTART
7,
,
,
0008,
7,
,
,
#GOGOEND
8,
,
#GOGOSTART
1010,
1,
1010,
1,
1010,
1,
2020,
2,
1010,
1,
2020,
2,
1,
2,
1,
2,
1020,
1,
5,
,
,
,
,
,
#MEASURE 5/4
#GOGOEND
8,
#GOGOSTART
3,
3,
3,
3,
3,
3,
#GOGOEND
3,
#GOGOSTART
#GOGOEND
3,
#GOGOSTART
3,
3000000000000000000
#GOGOEND
0,
,
,
,
,
,
#END