Files
Colins_Custom_Charts/03 VOCALOID/blender/blender.tja
T
2025-12-20 15:52:49 -05:00

304 lines
4.0 KiB
Plaintext

TITLE:blender
SUBTITLE:--Komedawara & R Sound Design feat. Vivid BAD SQUAD / Project SEKAI COLORFUL STAGE!
TITLEJA:blender
SUBTITLEJA:こめだわら×R Sound Design feat. Vivid BAD SQUAD 「プロジェクトセカイカラフルステージ!」より
PREIMAGE:blender.png
BGMOVIE:blender.mp4
WAVE:blender.ogg
BPM:103
OFFSET:-0.099
DEMOSTART:71.652
MAKER:Colin
COURSE:Easy
LEVEL:1
SCOREINIT:
SCOREDIFF:
NOTESDESIGNER0:Colin
#START
#SCROLL 1.6
0,
1,
1,
1,
1111,
1,
2022,
2020,
2,
#GOGOSTART
1011,
1010,
2022,
20000000000020000000000
#GOGOEND
0,
2,
2,
2220,
2,
1011,
1010,
1,
1011,
1,
2022,
2020,
2011,
1010,
1011,
1,
1,
5080,
20000000000020000000000
#GOGOSTART
0,
3011,
3022,
4022,
2,
1110,
1110,
2220,
2,
3110,
1011,
1010,
1110,
4020,
2220,
100000000000100000100005,
0
#GOGOEND
000,
8,
,
2022,
2020,
2022,
2,
1110,
5,
8,
#END
COURSE:Normal
LEVEL:2
SCOREINIT:
SCOREDIFF:
NOTESDESIGNER1:Colin
#START
#SCROLL 1.6
0,
1010,
1010,
1010,
1111,
1020,
2022,
2020,
2,
#GOGOSTART
10101110,
1010,
20202220,
20000000000020000020000
#GOGOEND
0,
2010,
2010,
2220,
2,
10101110,
1011,
1010,
10101110,
1020,
20202220,
2020,
2011,
1010,
10111010,
1010,
10101111,
5080,
20000020000020000000000
#GOGOSTART
0,
30111010,
30222020,
40222020,
2022,
10111010,
10111010,
20202220,
2,
30101110,
1011,
10111010,
1110,
40002220,
2220,
100000100000100100100005,
0
#GOGOEND
000,
8022,
2022,
20002022,
2022,
20002220,
2022,
1111,
5,
8,
#END
COURSE:Hard
LEVEL:4
SCOREINIT:
SCOREDIFF:
NOTESDESIGNER2:Colin
#START
#SCROLL 1.6
0,
0202,
0202,
0202,
2112,
1202,
0202,
0202,
000000000000000002201000,
#GOGOSTART
100000201000100100200000,
100000201000100100200000,
100000201000100100200000,
10000020100010010020000
#GOGOEND
0,
1212,
10201120,
10201122,
10201120,
100000200000100100200202,
00201021,
10201120,
1212,
100100201000100100200202,
000100200000100100200002,
01102211,
200000000200100001000200,
100000200000100100200202,
000000100000200100100202,
01201021,
20012222,
50008120,
10000020000010010020100
#GOGOSTART
1,
100100201001100100200000,
100100201001100100200100,
100100201001100100200105,
000000800100201100101100,
300100201001100100200000,
100100201001100100200000,
100100201001100100200100,
201001001100100200100100,
50801121,
10201121,
10201121,
10201122,
200202000100200000100000,
100100201000101100100100,
200000200200200100200050,
0
#GOGOEND
000,
800000201000100100200000,
100000201000100100200000,
100000201000100100200000,
100000201000100100200000,
100000201000100100200000,
100000201000100100200000,
100000201000100100200000,
100000201000100100200000,
1,
#END
COURSE:Oni
LEVEL:7
SCOREINIT:
SCOREDIFF:
NOTESDESIGNER3:Colin
#START
#SCROLL 1.6
000000000000000000000000000200200000100010100020,
000202000000001200202102,
000202000000001202102201,
000202000000000100201001,
21212121,
101202202002200201002100,
002201202001102002002100,
001102201002100201002200,
200000000200200201201200,
#GOGOSTART
300100201001101100201100,
100100201001101100201122,
100100201001101100201100,
10010020100110110120120
#GOGOEND
1,
000101001202000202102002,
000202002202002101102001,
000100200100200200101001,
000102000100202002002200,
001202202001100201001201,
002102101201200102102200,
001102202002200101002201,
201100201101201101222111,
202101202002102201200202,
002102202002202201201202,
002202202001201202100100,
200100201001201101101102,
101201202002101102100202,
002101201001102102201201,
002202202001202201100100,
200100201001201101101101,
200100200000000100202002,
10020020020020200220120
#GOGOSTART
3,
000102002201101002000101,
000102001101201002000200,
200101002201201001001002,
100100201100201101101101,
100102002201201001000201,
000201001201202002002001,
000202002102201002002001,
201001001201101001222111,
100100201001102100200102,
100100201001102101101101,
100100201001102100200102,
100100201002222111111111,
100100201001102100200102,
100100201001102101101101,
100100201001102101200202,
100100
#GOGOEND
200000200001201000,
100000201001000001201001,
000001201001000001201201,
000100201001000001201001,
000001201001000001222112,
000000201001000001201001,
000001201001000001201201,
000000201001000001201001,
000001201001000001222111,
2,
#END