generated from DragonRatTiger/Custom-Charts
626 lines
5.8 KiB
Plaintext
626 lines
5.8 KiB
Plaintext
TITLE:CIRCUNFERENCIA
|
|
SUBTITLE:--UKLO
|
|
TITLEJA:CIRCUNFERENCIA
|
|
SUBTITLEJA:UKLO
|
|
PREIMAGE:CIRCUNFERENCIA.png
|
|
WAVE:CIRCUNFERENCIA.ogg
|
|
BPM:216
|
|
OFFSET:0
|
|
DEMOSTART:53.333
|
|
MAKER:Colin
|
|
|
|
COURSE:Easy
|
|
LEVEL:4
|
|
SCOREINIT:
|
|
SCOREDIFF:
|
|
NOTESDESIGNER0:Colin
|
|
|
|
#START
|
|
3,
|
|
,
|
|
,
|
|
,
|
|
1,
|
|
1,
|
|
1,
|
|
,
|
|
2,
|
|
2,
|
|
2,
|
|
,
|
|
1,
|
|
1,
|
|
1,
|
|
,
|
|
1,
|
|
1,
|
|
1010,
|
|
1,
|
|
2020,
|
|
2,
|
|
2020,
|
|
2,
|
|
1010,
|
|
1,
|
|
1010,
|
|
1,
|
|
2020,
|
|
2,
|
|
2020,
|
|
2,
|
|
1,
|
|
1,
|
|
1010,
|
|
1,
|
|
1,
|
|
1,
|
|
1010,
|
|
1,
|
|
2,
|
|
2,
|
|
2020,
|
|
2,
|
|
2,
|
|
2,
|
|
2020,
|
|
2,
|
|
3010,
|
|
1110,
|
|
1010,
|
|
1,
|
|
2020,
|
|
2220,
|
|
2020,
|
|
2,
|
|
1010,
|
|
1110,
|
|
1010,
|
|
1,
|
|
2020,
|
|
2220,
|
|
2020,
|
|
2,
|
|
3,
|
|
,
|
|
1,
|
|
1,
|
|
1,
|
|
,
|
|
1,
|
|
1,
|
|
1,
|
|
,
|
|
2,
|
|
2,
|
|
2,
|
|
,
|
|
2,
|
|
,
|
|
3,
|
|
1010,
|
|
1,
|
|
1,
|
|
1,
|
|
,
|
|
1010,
|
|
1,
|
|
2,
|
|
2,
|
|
2020,
|
|
2,
|
|
2,
|
|
2,
|
|
2,
|
|
,
|
|
1,
|
|
1010,
|
|
1,
|
|
1,
|
|
1,
|
|
1010,
|
|
1,
|
|
1,
|
|
2,
|
|
2020,
|
|
2,
|
|
2,
|
|
2,
|
|
2020,
|
|
2,
|
|
2,
|
|
3,
|
|
1,
|
|
1010,
|
|
1,
|
|
2,
|
|
2,
|
|
2020,
|
|
2,
|
|
1,
|
|
1,
|
|
1,
|
|
1,
|
|
2020,
|
|
2,
|
|
2022,
|
|
2,
|
|
3010,
|
|
1110,
|
|
1010,
|
|
1,
|
|
2020,
|
|
2220,
|
|
2020,
|
|
2,
|
|
1010,
|
|
1110,
|
|
1010,
|
|
1,
|
|
2020,
|
|
2220,
|
|
2020,
|
|
2,
|
|
3,
|
|
#END
|
|
|
|
COURSE:Normal
|
|
LEVEL:7
|
|
SCOREINIT:
|
|
SCOREDIFF:
|
|
NOTESDESIGNER1:Colin
|
|
|
|
#START
|
|
3,
|
|
,
|
|
,
|
|
,
|
|
10001011,
|
|
1110,
|
|
1,
|
|
,
|
|
2020,
|
|
2220,
|
|
2020,
|
|
2,
|
|
1010,
|
|
1110,
|
|
10001011,
|
|
1110,
|
|
1010,
|
|
1,
|
|
1011,
|
|
1,
|
|
2020,
|
|
2,
|
|
2022,
|
|
2,
|
|
1010,
|
|
1,
|
|
10001011,
|
|
1010,
|
|
2020,
|
|
2,
|
|
2022,
|
|
2,
|
|
1110,
|
|
1110,
|
|
1011,
|
|
1010,
|
|
1110,
|
|
1110,
|
|
1011,
|
|
1010,
|
|
2220,
|
|
2220,
|
|
2022,
|
|
2020,
|
|
20022000,
|
|
20022000,
|
|
2222,
|
|
2,
|
|
30001011,
|
|
1110,
|
|
1011,
|
|
1,
|
|
20002022,
|
|
2220,
|
|
2020,
|
|
2,
|
|
10011010,
|
|
1110,
|
|
1010,
|
|
1,
|
|
20022020,
|
|
2220,
|
|
2020,
|
|
2,
|
|
3,
|
|
,
|
|
1,
|
|
1,
|
|
1,
|
|
,
|
|
1,
|
|
1010,
|
|
1,
|
|
1,
|
|
2,
|
|
2,
|
|
2,
|
|
,
|
|
2,
|
|
,
|
|
3010,
|
|
1110,
|
|
1010,
|
|
1,
|
|
10011000,
|
|
1,
|
|
1011,
|
|
1,
|
|
2020,
|
|
2220,
|
|
2020,
|
|
2,
|
|
2020,
|
|
2,
|
|
20020000,
|
|
2,
|
|
1,
|
|
1011,
|
|
1,
|
|
10011010,
|
|
1,
|
|
10011010,
|
|
1,
|
|
10011000,
|
|
2020,
|
|
20022020,
|
|
2020,
|
|
20022020,
|
|
2020,
|
|
2220,
|
|
2020,
|
|
2,
|
|
3010,
|
|
1,
|
|
1011,
|
|
1,
|
|
2020,
|
|
2220,
|
|
2020,
|
|
2,
|
|
1010,
|
|
1011,
|
|
1010,
|
|
1,
|
|
2020,
|
|
2,
|
|
20022020,
|
|
2,
|
|
3010,
|
|
10111000,
|
|
1011,
|
|
1010,
|
|
20002022,
|
|
2220,
|
|
2022,
|
|
2,
|
|
10001001,
|
|
1110,
|
|
10001011,
|
|
1110,
|
|
20002002,
|
|
2220,
|
|
2022,
|
|
2020,
|
|
3,
|
|
#END
|
|
|
|
COURSE:Hard
|
|
LEVEL:8
|
|
SCOREINIT:
|
|
SCOREDIFF:
|
|
NOTESDESIGNER2:Colin
|
|
|
|
#START
|
|
30020050,
|
|
0081,
|
|
2,
|
|
,
|
|
0211,
|
|
20020020,
|
|
00000220,
|
|
,
|
|
30020011,
|
|
01020020,
|
|
20020002,
|
|
20001105,
|
|
,
|
|
,
|
|
80202202,
|
|
02222202,
|
|
10201121,
|
|
01201120,
|
|
10201121,
|
|
0010200010222000,
|
|
10201121,
|
|
01201120,
|
|
10201121,
|
|
0010200010222000,
|
|
10201121,
|
|
01201120,
|
|
10201121,
|
|
0010200010222000,
|
|
10201121,
|
|
01201120,
|
|
10201121,
|
|
0010200010222000,
|
|
1001001010010010,
|
|
1001001010010010,
|
|
1001001010010010,
|
|
1001001010010010,
|
|
1001001010010010,
|
|
1001001010010010,
|
|
1001001010010010,
|
|
1001001010010010,
|
|
2002002020020020,
|
|
2002002020020020,
|
|
2002002020020020,
|
|
2002002020020020,
|
|
2002002020020020,
|
|
2002002020020020,
|
|
2002002020020020,
|
|
2002002020020020,
|
|
3010200010222000,
|
|
1010201110102000,
|
|
10211020,
|
|
11201122,
|
|
10121120,
|
|
1010200011102000,
|
|
1002200110102000,
|
|
11201122,
|
|
3010200010222000,
|
|
1010201110102000,
|
|
10211020,
|
|
11201122,
|
|
10121120,
|
|
1010200011102000,
|
|
1002200110102000,
|
|
11201122,
|
|
20020050,
|
|
0081,
|
|
2,
|
|
,
|
|
20100100,
|
|
20020050,
|
|
0080,
|
|
,
|
|
10010010,
|
|
01002010,
|
|
10020010,
|
|
00000001,
|
|
10010010,
|
|
1020,
|
|
1020,
|
|
1020,
|
|
10201121,
|
|
01201120,
|
|
10201121,
|
|
0010200010222000,
|
|
10201121,
|
|
01201120,
|
|
10201121,
|
|
0010200010222000,
|
|
10201121,
|
|
01201120,
|
|
10201121,
|
|
0010200010222000,
|
|
10201121,
|
|
01201120,
|
|
10201121,
|
|
0010200010222000,
|
|
1001001010010010,
|
|
1001001010010010,
|
|
11201221,
|
|
1000200010022000,
|
|
11201221,
|
|
1000200010022000,
|
|
11201221,
|
|
1000200010022000,
|
|
11201221,
|
|
1000200010022000,
|
|
11201221,
|
|
1000200010022000,
|
|
11201221,
|
|
1000200010022000,
|
|
11201221,
|
|
1000200010022000,
|
|
1010200010222000,
|
|
1001001020002000,
|
|
10101221,
|
|
01101120,
|
|
1010200010222000,
|
|
1001001020002000,
|
|
10101221,
|
|
01101120,
|
|
1010200010222000,
|
|
1001001020002000,
|
|
10101221,
|
|
01101120,
|
|
1010200010222000,
|
|
1001001020002000,
|
|
10101221,
|
|
01101120,
|
|
3010200010222000,
|
|
1010201110102000,
|
|
10211020,
|
|
11201122,
|
|
10121120,
|
|
1010200011102000,
|
|
1002200110102000,
|
|
11201122,
|
|
3010200010222000,
|
|
1010201110102000,
|
|
10211020,
|
|
11201122,
|
|
10121120,
|
|
1010200011102000,
|
|
1002200110102000,
|
|
11201122,
|
|
3,
|
|
#END
|
|
|
|
COURSE:Oni
|
|
LEVEL:10
|
|
SCOREINIT:
|
|
SCOREDIFF:
|
|
NOTESDESIGNER3:Colin
|
|
|
|
#START
|
|
30212101,
|
|
01022020,
|
|
10112101,
|
|
02222202,
|
|
10201120,
|
|
20120120,
|
|
10202201,
|
|
01221102,
|
|
10212101,
|
|
01022020,
|
|
10112101,
|
|
02222202,
|
|
10201102,
|
|
01021020,
|
|
10202201,
|
|
01221102,
|
|
1010201120201120,
|
|
1010201210102020,
|
|
1010201120201120,
|
|
1010201210112020,
|
|
1010201120201120,
|
|
1010201210102020,
|
|
1010201120201120,
|
|
1010201210112020,
|
|
1010201120201120,
|
|
1010201210102020,
|
|
1010201120201120,
|
|
1010201210112020,
|
|
1010201120201120,
|
|
1010201210102020,
|
|
1010201120201120,
|
|
1010201210112020,
|
|
1011012010110120,
|
|
1011012010110120,
|
|
1011012010110120,
|
|
1011012010110120,
|
|
1011012010110120,
|
|
1011012010110120,
|
|
1011012010110120,
|
|
1011012010110120,
|
|
1022012010210120,
|
|
1022012010210120,
|
|
1022012010210120,
|
|
1022012010210120,
|
|
1022012010210120,
|
|
1022012010210120,
|
|
1022012010210120,
|
|
1012112011201020,
|
|
3010201210112020,
|
|
1010201210102020,
|
|
1101202011012020,
|
|
1111202011012020,
|
|
1012102011202220,
|
|
1010222012012020,
|
|
1101202011012020,
|
|
1011201110112020,
|
|
1011201201102012,
|
|
1021202210202012,
|
|
1011201201202012,
|
|
1020201210112020,
|
|
1011202011112022,
|
|
1111202211112022,
|
|
1101202210102022,
|
|
1010201210112012,
|
|
10120150,
|
|
0081,
|
|
2,
|
|
,
|
|
10101101,
|
|
01011010,
|
|
10101101,
|
|
01111101,
|
|
20120120,
|
|
12012110,
|
|
20120120,
|
|
11210221,
|
|
10201201,
|
|
02022020,
|
|
10201202,
|
|
02222202,
|
|
10201121,
|
|
01221020,
|
|
10201121,
|
|
0010201010112010,
|
|
10201121,
|
|
01221020,
|
|
10201121,
|
|
0010202010112010,
|
|
10201121,
|
|
01221020,
|
|
10201121,
|
|
0010201010112010,
|
|
10201121,
|
|
01221020,
|
|
10201121,
|
|
0010202010112010,
|
|
1001001010010010,
|
|
1001001010010010,
|
|
1111201211112012,
|
|
1111201211112012,
|
|
1111201211112012,
|
|
1111201211112012,
|
|
1111201211112012,
|
|
1111201211112012,
|
|
2112201221112022,
|
|
2112201221122012,
|
|
2112201221122012,
|
|
2112201221122012,
|
|
2112201221122012,
|
|
2112201221122012,
|
|
2112201221122012,
|
|
2112201221122012,
|
|
1010201021121020,
|
|
1011012011221111,
|
|
21212212,
|
|
1111202020112020,
|
|
1101202010102020,
|
|
1010202012112020,
|
|
1010201210112010,
|
|
1021201020222020,
|
|
1212102102101102,
|
|
1022021020112122,
|
|
1202102210212222,
|
|
1022122211112211,
|
|
2012111121212222,
|
|
1222122212121222,
|
|
102020200200100200200200100200200200102020100200,
|
|
102020100200100200200200100200200200102000202000,
|
|
3010201210112020,
|
|
1010201210102020,
|
|
1101202011012020,
|
|
1111202011012020,
|
|
1012102011202220,
|
|
1010222012012020,
|
|
1101202011012020,
|
|
1011201110112020,
|
|
1011201201102012,
|
|
1021202210202012,
|
|
1011201201202012,
|
|
1020201210112020,
|
|
1011202011112022,
|
|
1111202211112022,
|
|
1101202210102022,
|
|
1010201210112012,
|
|
1,
|
|
#END |