Files
Colins_Custom_Charts/04 Variety/METATRON/METATRON.tja
T
2025-06-11 19:53:16 -04:00

451 lines
4.5 KiB
Plaintext

// PeepoDrumKit 2023/10/28
TITLE:METATRON
TITLEJA:METATRON
SUBTITLE:--SHIKI / 【BOFU2015】
SUBTITLEJA:SHIKI 「【BOFU2015】」より
BPM:190
WAVE:METATRON.ogg
PREIMAGE:METATRON.jpg
OFFSET:-1.392
DEMOSTART:31.707
MAKER:Colin
BGMOVIE:METATRON.mp4
COURSE:Easy
LEVEL:3
BALLOON:8
SCOREINIT:
SCOREDIFF:
NOTESDESIGNER0:Colin
#START
1010,
3,
,
3,
,
3,
,
33003300,
3,
2020,
2220,
2020,
2220,
2020,
2220,
2020,
1010,
1,
1010,
1,
1010,
1,
1010,
1,
#GOGOSTART
1020,
1010,
1,
1020,
1010,
1,
2020,
5,
8
#GOGOEND
0
#GOGOSTART
001000,
1,
2020,
1,
1010,
1,
2020,
2,
#GOGOEND
1020,
1,
1020,
1,
1020,
1,
1020,
1,
2,
2020,
2,
2,
2,
2,
2020,
2,
#GOGOSTART
2020,
2,
1010,
1,
1010,
1,
2020,
2,
#GOGOEND
2,
2,
2,
1,
1,
1,
1,
33030300,
#GOGOSTART
2022,
20020200,
10010010,
10010000,
7,
8,
1010,
1,
2020,
2,
1010,
1,
2020,
2,
1010,
100010001000100
#GOGOEND
0,
#END
COURSE:Normal
LEVEL:6
BALLOON:8
SCOREINIT:
SCOREDIFF:
NOTESDESIGNER1:Colin
#START
10103300,
3020,
2020,
3020,
2020,
3020,
2020,
33003300,
3,
20202022,
2220,
20202022,
2220,
20202022,
2220,
2220,
10111010,
1010,
10111010,
1010,
10111010,
1010,
10111010,
1,
#GOGOSTART
1220,
1210,
1220,
1220,
1210,
1210,
20202022,
5,
8
#GOGOEND
0
#GOGOSTART
101000,
1110,
2220,
10222020,
1110,
10111000,
2222,
2020,
#GOGOEND
10112000,
1110,
10112000,
1110,
10112010,
1010,
10112010,
1,
2020,
20020020,
20002022,
2220,
20020020,
20020020,
20002222,
20020000,
#GOGOSTART
2220,
20111010,
1110,
10111010,
1110,
10111010,
2220,
2220,
#GOGOEND
2100,
2100,
2101,
1010,
1100,
1100,
1100,
33030300,
#GOGOSTART
20202022,
20020200,
10010110,
10010110,
7,
8,
1110,
1110,
20222000,
20222000,
10111010,
10010000,
20222020,
20222020,
1111,
100010001010101
#GOGOEND
0,
#END
COURSE:Hard
LEVEL:7
BALLOON:32
SCOREINIT:
SCOREDIFF:
NOTESDESIGNER2:Colin
#START
12103400,
10222011,
01022020,
10222022,
02011020,
10222011,
01022020,
44004400,
12121212,
11212115,
00008022,
21220215,
00008021,
22211015,
00000800,
2022202000101000,
20100212,
10000212,
10000212,
2022202010201000,
21212020,
2002002001001010,
2002002002002020,
2222,
#GOGOSTART
21212222,
01212012,
01212221,
20120110,
1020202220202000,
12110120,
2022202220102020,
1011102010002000,
20
#GOGOEND
00
#GOGOSTART
102020222020,
2000101110201020,
2000002220101020,
1000101110201000,
2022201020202000,
1022201020201020,
1020001110101000,
2222,
#GOGOEND
10212011,
01202110,
10202122,
02021210,
10212111,
01212110,
10212122,
02021210,
20000222,
20010020,
20001022,
00011000,
20010122,
20011020,
22222222,
14040440,
#GOGOSTART
2000002220222022,
2000101110201000,
2000002220201011,
1000101110001000,
21202111,
2022201020202010,
2000002220101020,
1002002020002000,
#GOGOEND
20120020,
1000200020020020,
1000111020202020,
22120120,
10221220,
20021020,
20210120,
4040004000401110,
#GOGOSTART
2000101110201010,
20020200,
10120110,
20120100,
2000222020001110,
4004004040040040,
4010200020111011,
12202222,
20121222,
20102200,
7,
,
8000111010101000,
1022202220222010,
1010101110202022,
201010111011101
#GOGOEND
1,
#END
COURSE:Oni
LEVEL:10
SCOREINIT:
SCOREDIFF:
NOTESDESIGNER3:Colin
#START
2111211122221111,
2010201120101020,
0010201120101120,
10212122,
2221121120221220,
11212112,
0010201020111020,
300300222200300300222200,
1222101112222011,
2020101120201020,
1022102210201020,
2011201020221020,
1120102010212112,
1020112011221020,
1120201120120122,
1012201120120120,
1020102022201020,
10121212,
10120122,
2012202011201220,
2012211122112012,
2012012012012120,
2012012012012020,
2010201022222222,
#GOGOSTART
2011201120202020,
2011201120121020,
1010201010212010,
2012102011202222,
2011201122112211,
2020102011201022,
2011212221212121,
200111100111100111100211,
20
#GOGOEND
10
#GOGOSTART
#SCROLL 2
4
#SCROLL 1
01120112012,
1020102210201120,
100000200000100000100100200000200000100000202020,
1022101210201122,
2011221121212121,
2011221120121010,
2011202210201020,
2012012220201122,
#GOGOEND
1010201120201020,
0010201120201020,
10212122,
0020002010201122,
1011201120101020,
01212211,
10212122,
02021112,
20000111,
20010020,
20001012,
00011000,
20010222,
20011020,
2222222222222222,
14040430,
#GOGOSTART
4020101220122012,
1020101220221010,
2011201220201022,
1020102210201222,
2012221121212121,
2012221120221020,
2020102212221020,
2012012222222222,
#GOGOEND
1010102000102211,
2000200020020020,
11220122,
20120122,
20110222,
20011120,
2000111111111111,
2030003000301111,
#GOGOSTART
2010201110202022,
2022102011201022,
1020102211201020,
1022112010201220,
2012111122221111,
2004002210030030,
2211222212121122,
1122112212112222,
2021102011201020,
2020112010201020,
2212221112211122,
1012201220122012,
2012201222112222,
1012201220122012,
2211211112212221,
221122212112211
#GOGOEND
2,
#END