generated from DragonRatTiger/Custom-Charts
791 lines
9.1 KiB
Plaintext
791 lines
9.1 KiB
Plaintext
TITLE:Failnaught
|
|
SUBTITLE:--xi / SOUND VOLTEX HEAVENLY HAVEN
|
|
TITLEJA:Failnaught
|
|
SUBTITLEJA:xi 「SOUND VOLTEX HEAVENLY HAVEN」より
|
|
PREIMAGE:Failnaught.png
|
|
BPM:220
|
|
WAVE:Failnaught.ogg
|
|
OFFSET:-1.769
|
|
DEMOSTART:19.2235
|
|
MAKER:Makotora / Colin
|
|
|
|
COURSE:Edit
|
|
LEVEL:10
|
|
SCOREINIT:
|
|
SCOREDIFF:
|
|
NOTESDESIGNER4:Colin
|
|
|
|
#START
|
|
#GOGOSTART
|
|
1000
|
|
#GOGOEND
|
|
221022221011,
|
|
#GOGOSTART
|
|
2010
|
|
#GOGOEND
|
|
221112221122,
|
|
#GOGOSTART
|
|
10
|
|
#GOGOEND
|
|
202222,
|
|
2222112222111110,
|
|
2000202020222020,
|
|
222222111111200100222222,
|
|
1012101101201022,
|
|
100000100100200000100000100100200000100100202020,
|
|
1020101201101022,
|
|
1022101022121111,
|
|
2022021010202122,
|
|
1011201011102211,
|
|
2011201122112222,
|
|
100222102020102020102020,
|
|
211211211211,
|
|
200010000200000200000200100000100100200000100100,
|
|
#GOGOSTART
|
|
2000122211221020,
|
|
1202112211221120,
|
|
1120102211221020,
|
|
1022102010221122,
|
|
1022202210201020,
|
|
1202102011221020,
|
|
1202102010111122,
|
|
2022102210221122,
|
|
1020112211221022,
|
|
1202112211201020,
|
|
1120112211201120,
|
|
1022102010221222,
|
|
12121212,
|
|
1202102211201020,
|
|
1122102010201022,
|
|
1122122212221110,
|
|
#GOGOEND
|
|
1010100021111222,
|
|
1111112011221011,
|
|
1022101020221122,
|
|
1010104000001122,
|
|
1010100022221122,
|
|
1022112010221011,
|
|
1011202022221122,
|
|
100200200200100000200200100000100000101010101010,
|
|
#GOGOSTART
|
|
100100101010202020101010,
|
|
2010112011201011,
|
|
2020102010221120,
|
|
1022101122221122,
|
|
100200100020102020102020,
|
|
1020112011201011,
|
|
2011202012221222,
|
|
1222122212221222,
|
|
#GOGOEND
|
|
1020102210201020,
|
|
1011111110110110,
|
|
1001001011201111,
|
|
1011222212221010,
|
|
1001001010002010,
|
|
1011211120020011,
|
|
2010221020002210,
|
|
211211211211,
|
|
2001001020102220,
|
|
2210110112021012,
|
|
100100200200100100200000100000002000100020002000,
|
|
1122112211221122,
|
|
1000221011112222,
|
|
1020221111112222,
|
|
10201111,
|
|
1222122221102210,
|
|
211211211211,
|
|
211211211211,
|
|
211211211211,
|
|
2202020212221222,
|
|
1000000000002222,
|
|
2,
|
|
400000202020101010200200,
|
|
100000202020102020100200,
|
|
2020221121122222,
|
|
#GOGOSTART
|
|
1020122212221111,
|
|
1011102010222020,
|
|
100200100000100000200000101010200000200000200000,
|
|
1210102210221020,
|
|
1022102210221211,
|
|
2101122211221020,
|
|
1202112211221120,
|
|
1120102211221020,
|
|
1022102010221122,
|
|
1022202210201020,
|
|
1202102011221020,
|
|
1202102010111122,
|
|
1222122212221222,
|
|
1222122212221222,
|
|
#GOGOEND
|
|
1010201012122010,
|
|
1110202011112020,
|
|
1022111112022210,
|
|
2222111122221111,
|
|
2020201122122010,
|
|
2210222211112222,
|
|
100000101010202020100200100200100100200200100000,
|
|
1010221212112222,
|
|
1010201112122010,
|
|
100100100000200000200200100200100100200020002000,
|
|
1011201012122010,
|
|
2012221212221222,
|
|
1011201000102222,
|
|
1003001112020020,
|
|
#GOGOSTART
|
|
1002
|
|
#GOGOEND
|
|
210011222222,
|
|
#GOGOSTART
|
|
1000
|
|
#GOGOEND
|
|
221011222222,
|
|
#GOGOSTART
|
|
10
|
|
#GOGOEND
|
|
202222,
|
|
2222112222101100,
|
|
#GOGOSTART
|
|
211
|
|
#GOGOEND
|
|
211
|
|
#GOGOSTART
|
|
211
|
|
#GOGOEND
|
|
211,
|
|
#GOGOSTART
|
|
2102
|
|
#GOGOEND
|
|
0202
|
|
#GOGOSTART
|
|
1222
|
|
#GOGOEND
|
|
1022,
|
|
100000400000222222222222,
|
|
1,
|
|
#END
|
|
|
|
COURSE:Oni
|
|
LEVEL:10
|
|
SCOREINIT:
|
|
SCOREDIFF:
|
|
NOTESDESIGNER3:Makotora
|
|
|
|
#START
|
|
#GOGOSTART
|
|
1000
|
|
#GOGOEND
|
|
221111112122,
|
|
#GOGOSTART
|
|
1000
|
|
#GOGOEND
|
|
112222221211,
|
|
#GOGOSTART
|
|
20
|
|
#GOGOEND
|
|
202211,
|
|
2222112222110110,
|
|
2000202020222020,
|
|
100200200200100200200200100200100200100202020200,
|
|
1022021022021022,
|
|
1022021022021021,
|
|
1022021022021022,
|
|
1022021011212022,
|
|
1022021022021022,
|
|
1022021022021021,
|
|
1022102011112222,
|
|
1112122122212112,
|
|
112112122122,
|
|
1102020211121112,
|
|
#GOGOSTART
|
|
1000122122112211,
|
|
2000211211221122,
|
|
100000000000100020002000100100100200200200100200,
|
|
1011202210002222,
|
|
1012002011212010,
|
|
2021001022121020,
|
|
1022102011201122,
|
|
1022102012121222,
|
|
1000112112112211,
|
|
2000221221221122,
|
|
100000000000100020002000100100100200200200100200,
|
|
1012202110002222,
|
|
1012002012122010,
|
|
2021001021211020,
|
|
1021102012201122,
|
|
1212121211212212,
|
|
#GOGOEND
|
|
11102012,
|
|
1000201000221020,
|
|
1011100020201020,
|
|
1000201000112020,
|
|
11102012,
|
|
1000201000221020,
|
|
1011100020201020,
|
|
100200200200100200200200100200100200100202020200,
|
|
#GOGOSTART
|
|
100100100200101020102020,
|
|
1011201020221020,
|
|
100100100200102020101020,
|
|
1022121000221222,
|
|
121222112122,
|
|
1021201000221120,
|
|
1021201210221220,
|
|
100200200200100200200200100200100200100202020200,
|
|
#GOGOEND
|
|
10220020,
|
|
20220021,
|
|
1001001000002020,
|
|
12121011,
|
|
1001001020002010,
|
|
1001001020010010,
|
|
1120002210002120,
|
|
122122112112,
|
|
1122,
|
|
2210210210210011,
|
|
1222102012121020,
|
|
1112221122211122,
|
|
1000221000221212,
|
|
2000112000112121,
|
|
10202211,
|
|
2222112222110110,
|
|
111020101020102020101020,
|
|
111020102020101020102020,
|
|
111020101020111020102020,
|
|
1102020211121112,
|
|
1,
|
|
,
|
|
2022,
|
|
2022,
|
|
2000202020202222,
|
|
#GOGOSTART
|
|
100200200200100200200200100200100200100202020200,
|
|
1012002011212010,
|
|
2021001022121020,
|
|
1022102011201122,
|
|
1022102012121222,
|
|
1000112112112211,
|
|
2000221221221122,
|
|
100000000000100020002000100100100200200200100200,
|
|
1012202110002222,
|
|
1012002012122010,
|
|
2021001021211020,
|
|
1021102012201122,
|
|
1212121211212212,
|
|
1211212211221212,
|
|
#GOGOEND
|
|
1000201002020111,
|
|
01201120,
|
|
1000201002020111,
|
|
0010222211112211,
|
|
1022010221022010,
|
|
0010222211112211,
|
|
1112221122211122,
|
|
1000222212221020,
|
|
1022021022021210,
|
|
000000100100200020002000100100100100200020002000,
|
|
1022021022021210,
|
|
000000100100200020002000100100100200200200100200,
|
|
1022201102201122,
|
|
1021021120120122,
|
|
#GOGOSTART
|
|
1000
|
|
#GOGOEND
|
|
221111112122,
|
|
#GOGOSTART
|
|
1000
|
|
#GOGOEND
|
|
112222221211,
|
|
#GOGOSTART
|
|
20
|
|
#GOGOEND
|
|
202211,
|
|
2222112222110110,
|
|
#GOGOSTART
|
|
111020
|
|
#GOGOEND
|
|
101020
|
|
#GOGOSTART
|
|
111020
|
|
#GOGOEND
|
|
102020,
|
|
#GOGOSTART
|
|
1022
|
|
#GOGOEND
|
|
0202
|
|
#GOGOSTART
|
|
1221
|
|
#GOGOEND
|
|
2210,
|
|
0600,
|
|
8,
|
|
#END
|
|
|
|
COURSE:Hard
|
|
LEVEL:8
|
|
SCOREINIT:
|
|
SCOREDIFF:
|
|
NOTESDESIGNER2:Makotora
|
|
|
|
#START
|
|
#GOGOSTART
|
|
1000
|
|
#GOGOEND
|
|
111011101000,
|
|
#GOGOSTART
|
|
2000
|
|
#GOGOEND
|
|
222022202000,
|
|
#GOGOSTART
|
|
3
|
|
#GOGOEND
|
|
000,
|
|
2220202011101010,
|
|
2,
|
|
5008,
|
|
10210210,
|
|
10210212,
|
|
10210210,
|
|
10210212,
|
|
10210210,
|
|
10210212,
|
|
11221122,
|
|
1110222011102220,
|
|
5,
|
|
0008,
|
|
#GOGOSTART
|
|
1000111011101000,
|
|
2000222022202000,
|
|
1000111011101000,
|
|
2020,
|
|
1011101020102000,
|
|
2022202010201000,
|
|
11221120,
|
|
22112210,
|
|
1000111011101000,
|
|
2000222022202000,
|
|
1000111011101000,
|
|
2020,
|
|
1011101020102000,
|
|
2022202010201000,
|
|
11221120,
|
|
22112210,
|
|
#GOGOEND
|
|
10012012,
|
|
1000201000001011,
|
|
10012012,
|
|
10210012,
|
|
10012012,
|
|
1000201000001011,
|
|
10012012,
|
|
10210012,
|
|
#GOGOSTART
|
|
1000201110201020,
|
|
10210210,
|
|
2000102220102010,
|
|
20120120,
|
|
1000201110201020,
|
|
10210210,
|
|
2000102220102010,
|
|
20120120,
|
|
#GOGOEND
|
|
10020020,
|
|
20020020,
|
|
1001001000002000,
|
|
11101011,
|
|
1022,
|
|
1022,
|
|
1000000011102220,
|
|
5008,
|
|
1122,
|
|
1010222010102000,
|
|
2211,
|
|
2020111020201000,
|
|
1010102020201110,
|
|
2020201010102220,
|
|
1,
|
|
5,
|
|
,
|
|
,
|
|
,
|
|
,
|
|
8,
|
|
,
|
|
2022,
|
|
2022,
|
|
20222222,
|
|
#GOGOSTART
|
|
1110222010000000,
|
|
1011101020102000,
|
|
2022202010201000,
|
|
11221120,
|
|
22112210,
|
|
1000111011101000,
|
|
2000222022202000,
|
|
1000111011101000,
|
|
2020,
|
|
1011101020102000,
|
|
2022202010201000,
|
|
11221120,
|
|
22112210,
|
|
1010202011102220,
|
|
#GOGOEND
|
|
10210210,
|
|
20120120,
|
|
10210211,
|
|
20120122,
|
|
10211211,
|
|
20122122,
|
|
1000201110201110,
|
|
2000102220102220,
|
|
10220121,
|
|
0212,
|
|
10220121,
|
|
0212,
|
|
11210121,
|
|
1001001020020020,
|
|
#GOGOSTART
|
|
1000
|
|
#GOGOEND
|
|
111011101000,
|
|
#GOGOSTART
|
|
2000
|
|
#GOGOEND
|
|
222022202000,
|
|
#GOGOSTART
|
|
3
|
|
#GOGOEND
|
|
000,
|
|
5008,
|
|
#GOGOSTART
|
|
1011
|
|
#GOGOEND
|
|
1011
|
|
#GOGOSTART
|
|
1011
|
|
#GOGOEND
|
|
1010,
|
|
#GOGOSTART
|
|
2022
|
|
#GOGOEND
|
|
2022
|
|
#GOGOSTART
|
|
2022
|
|
#GOGOEND
|
|
2020,
|
|
0600,
|
|
8,
|
|
#END
|
|
|
|
COURSE:Normal
|
|
LEVEL:7
|
|
SCOREINIT:
|
|
SCOREDIFF:
|
|
NOTESDESIGNER1:Makotora
|
|
|
|
#START
|
|
#GOGOSTART
|
|
10
|
|
#GOGOEND
|
|
111110,
|
|
#GOGOSTART
|
|
20
|
|
#GOGOEND
|
|
222220,
|
|
#GOGOSTART
|
|
3
|
|
#GOGOEND
|
|
000,
|
|
22201110,
|
|
2,
|
|
5008,
|
|
10210010,
|
|
10210210,
|
|
10210010,
|
|
10210210,
|
|
10210010,
|
|
10210210,
|
|
1212,
|
|
11221122,
|
|
5,
|
|
0008,
|
|
#GOGOSTART
|
|
10111110,
|
|
20222220,
|
|
10111110,
|
|
2020,
|
|
10112120,
|
|
20221210,
|
|
10221120,
|
|
20112210,
|
|
10111110,
|
|
20222220,
|
|
10111110,
|
|
2020,
|
|
10112120,
|
|
20221210,
|
|
10221120,
|
|
20112210,
|
|
#GOGOEND
|
|
1021,
|
|
10010000,
|
|
1021,
|
|
10010000,
|
|
1021,
|
|
10010000,
|
|
1021,
|
|
10010000,
|
|
#GOGOSTART
|
|
10201212,
|
|
10210000,
|
|
20102121,
|
|
20120000,
|
|
10201212,
|
|
10210000,
|
|
20102121,
|
|
20120000,
|
|
#GOGOEND
|
|
10020020,
|
|
20020020,
|
|
1001001000002000,
|
|
10001011,
|
|
1022,
|
|
1022,
|
|
1012,
|
|
5008,
|
|
1122,
|
|
10201120,
|
|
2211,
|
|
20102210,
|
|
11122210,
|
|
22211120,
|
|
1,
|
|
5,
|
|
,
|
|
,
|
|
,
|
|
,
|
|
8,
|
|
,
|
|
2022,
|
|
2022,
|
|
20222220,
|
|
#GOGOSTART
|
|
1210,
|
|
10112120,
|
|
20221210,
|
|
10221120,
|
|
20112210,
|
|
10111110,
|
|
20222220,
|
|
10111110,
|
|
2020,
|
|
10112120,
|
|
20221210,
|
|
10221120,
|
|
20112210,
|
|
10201122,
|
|
#GOGOEND
|
|
10210010,
|
|
20120020,
|
|
10210010,
|
|
20120020,
|
|
10201211,
|
|
20102122,
|
|
10201211,
|
|
20102122,
|
|
10220121,
|
|
0210,
|
|
10220121,
|
|
0210,
|
|
10210120,
|
|
1001001020020020,
|
|
#GOGOSTART
|
|
10
|
|
#GOGOEND
|
|
111110,
|
|
#GOGOSTART
|
|
20
|
|
#GOGOEND
|
|
222220,
|
|
#GOGOSTART
|
|
3
|
|
#GOGOEND
|
|
000,
|
|
5008,
|
|
#GOGOSTART
|
|
11
|
|
#GOGOEND
|
|
11
|
|
#GOGOSTART
|
|
11
|
|
#GOGOEND
|
|
10,
|
|
#GOGOSTART
|
|
22
|
|
#GOGOEND
|
|
22
|
|
#GOGOSTART
|
|
22
|
|
#GOGOEND
|
|
20,
|
|
0600,
|
|
8,
|
|
#END
|
|
|
|
COURSE:Easy
|
|
LEVEL:5
|
|
SCOREINIT:
|
|
SCOREDIFF:
|
|
NOTESDESIGNER0:Makotora
|
|
|
|
#START
|
|
#GOGOSTART
|
|
10
|
|
#GOGOEND
|
|
101110,
|
|
#GOGOSTART
|
|
20
|
|
#GOGOEND
|
|
202220,
|
|
#GOGOSTART
|
|
3
|
|
#GOGOEND
|
|
000,
|
|
2211,
|
|
2,
|
|
5008,
|
|
10010010,
|
|
10010010,
|
|
10010010,
|
|
10010010,
|
|
10010010,
|
|
10010010,
|
|
1212,
|
|
1212,
|
|
5,
|
|
0008,
|
|
#GOGOSTART
|
|
10101110,
|
|
20202220,
|
|
10101110,
|
|
2020,
|
|
10102220,
|
|
20201110,
|
|
1210,
|
|
2120,
|
|
10101110,
|
|
20202220,
|
|
10101110,
|
|
2020,
|
|
10102220,
|
|
20201110,
|
|
1210,
|
|
2120,
|
|
#GOGOEND
|
|
1021,
|
|
10010000,
|
|
1021,
|
|
10010000,
|
|
1021,
|
|
10010000,
|
|
1021,
|
|
10010000,
|
|
#GOGOSTART
|
|
1210,
|
|
10210000,
|
|
2120,
|
|
20120000,
|
|
1210,
|
|
10210000,
|
|
2120,
|
|
20120000,
|
|
#GOGOEND
|
|
10020020,
|
|
20020020,
|
|
1001001000002000,
|
|
1011,
|
|
1020,
|
|
1020,
|
|
1020,
|
|
5008,
|
|
1120,
|
|
1210,
|
|
2210,
|
|
2120,
|
|
1121,
|
|
2212,
|
|
1,
|
|
5,
|
|
,
|
|
,
|
|
,
|
|
,
|
|
8,
|
|
,
|
|
2020,
|
|
2020,
|
|
2020,
|
|
#GOGOSTART
|
|
1210,
|
|
10102220,
|
|
20201110,
|
|
1210,
|
|
2120,
|
|
10101110,
|
|
20202220,
|
|
10101110,
|
|
2020,
|
|
10102220,
|
|
20201110,
|
|
1210,
|
|
2120,
|
|
1212,
|
|
#GOGOEND
|
|
10010010,
|
|
20020020,
|
|
10010010,
|
|
20020020,
|
|
10001011,
|
|
20002022,
|
|
10001011,
|
|
20002022,
|
|
10000121,
|
|
0210,
|
|
10000121,
|
|
0210,
|
|
10010020,
|
|
1001001020020020,
|
|
#GOGOSTART
|
|
10
|
|
#GOGOEND
|
|
101110,
|
|
#GOGOSTART
|
|
20
|
|
#GOGOEND
|
|
202220,
|
|
#GOGOSTART
|
|
3
|
|
#GOGOEND
|
|
000,
|
|
5008,
|
|
#GOGOSTART
|
|
10
|
|
#GOGOEND
|
|
10
|
|
#GOGOSTART
|
|
11
|
|
#GOGOEND
|
|
10,
|
|
#GOGOSTART
|
|
20
|
|
#GOGOEND
|
|
20
|
|
#GOGOSTART
|
|
22
|
|
#GOGOEND
|
|
20,
|
|
0600,
|
|
8,
|
|
#END
|