Files
Colins_Custom_Charts/05 Game Music/MarbleBlue/MarbleBlue.tja
T
2025-06-11 19:53:16 -04:00

618 lines
7.2 KiB
Plaintext

TITLE:MarbleBlue.
SUBTITLE:--MisoilePunch♪ / O.N.G.E.K.I. bright MEMORY
TITLEJA:MarbleBlue.
SUBTITLEJA:MisoilePunch♪ 「オンゲキ bright MEMORY」より
PREIMAGE:MarbleBlue.png
WAVE:MarbleBlue.ogg
BPM:198.232
OFFSET:-1.237
DEMOSTART:86.894
MAKER:Colin
COURSE:Easy
LEVEL:4
BALLOON:32
SCOREINIT:
SCOREDIFF:
NOTESDESIGNER0:Colin
#START
,
2,
,
2,
,
2,
,
20000003,
,
#GOGOSTART
6,
,
8,
1010,
1,
1010,
#GOGOEND
0,
,
2,
,
2,
,
20000002,
,
2,
,
105000,
080000,
5080,
50085008,
5008,
1020,
10030303,
,
2020,
2,
2020,
2,
2020,
2220,
2,
,
40040000,
0040,
40040000,
,
1,
0010,
,
1111,
1111,
1111,
#BPMCHANGE 99.116
#BMSCROLL
1,
#MEASURE 8/4
22,
22,
20222020,
#MEASURE 4/4
2,
#BPMCHANGE 198.232
2,
,
#GOGOSTART
3030,
3,
#GOGOEND
1
#GOGOSTART
010,
1110,
2020,
2220,
1010,
1110,
40040040,
04004040,
4,
1010,
1010,
1,
2020,
2,
2020,
#GOGOEND
2,
#GOGOSTART
1010,
1110,
2020,
22
#GOGOEND
20,
0
#GOGOSTART
300,
1010,
1,
2220,
1,
100000000000000
#GOGOEND
0,
0003
#GOGOSTART
00000000000000000000,
3,
#MEASURE 8/4
#GOGOEND
#BPMCHANGE 99.116
20,
#MEASURE 4/4
#GOGOSTART
#BPMCHANGE 198.232
3,
3,
3,
#GOGOEND
3,
#GOGOSTART
6,
,
8020,
2,
2020,
2220,
30030030,
03003000,
6,
0080,
,
7,
,
,
,
#GOGOEND
8,
2,
2,
20000022,
#END
COURSE:Normal
LEVEL:5
BALLOON:32
SCOREINIT:
SCOREDIFF:
NOTESDESIGNER1:Colin
#START
,
2,
,
2,
,
2,
,
20000003,
0011,
#GOGOSTART
6,
,
8,
1011,
1,
1011,
#GOGOEND
0,
,
20000022,
,
20000002,
,
20000002,
,
20020000,
2,
105000,
008000100100,
5080,
50085008,
5008,
1020,
10030303,
,
20002002,
00002022,
00002002,
0020,
20002002,
0220,
20000202,
,
40440000,
0040,
40440000,
3030,
3,
0010,
1,
10101011,
10101011,
10101011,
#BPMCHANGE 99.116
#BMSCROLL
1,
#MEASURE 8/4
20202000,
20202000,
2000222020022000,
#MEASURE 4/4
2,
#BPMCHANGE 198.232
2,
,
#GOGOSTART
3030,
3,
#GOGOEND
1
#GOGOSTART
010,
10111000,
20002022,
20222000,
1010,
1110,
40040040,
04004040,
4011,
10001011,
1010,
1,
2022,
2020,
2020,
#GOGOEND
2,
#GOGOSTART
1010,
10111000,
2020,
22
#GOGOEND
20,
0
#GOGOSTART
300,
1110,
1010,
20222020,
1,
100000000000000
#GOGOEND
0,
0003
#GOGOSTART
00000000000000000000,
3,
#MEASURE 8/4
#GOGOEND
#BPMCHANGE 99.116
20,
#MEASURE 4/4
#GOGOSTART
#BPMCHANGE 198.232
30300300,
30030030,
30030030,
#GOGOEND
3,
#GOGOSTART
6,
,
8020,
20002022,
2020,
20202022,
30030030,
03003000,
6,
0080,
,
7,
,
,
,
#GOGOEND
8,
2,
2,
20022022,
#END
COURSE:Hard
LEVEL:8
BALLOON:14,2,2,2,2,2,2,2,2,46,18,2,2,2,2,4,12
SCOREINIT:
SCOREDIFF:
NOTESDESIGNER2:Colin
#START
2222,
2,
,
2,
2222,
2,
,
70000008,
,
#GOGOSTART
20120020,
20120020,
20120020,
2022202011102000,
21121121,
1111,
#GOGOEND
4,
0012,
10000022,
000222,
10000012,
0012,
11121121,
0212,
10010020,
2022202220104000,
30060000,
8000101020102022,
20210220,
2010002220102220,
1010201000102022,
2010201020020020,
1011103000300040,
04401020,
2010101020222220,
02112203,
0020102220222220,
02112222,
1000102220200010,
000222,
2011104000400040,
0022201020102010,
44440000,
0000000030030030,
33330000,
444444,
47847847,
84784784,
78478478,
47000000,
,
,
#BPMCHANGE 99.116
#BMSCROLL
80000002,
#MEASURE 8/4
20022002200220021001100110000020,
10022002200220022002200220001010,
100000000000000200200200200000000000200000000000100000000000000000000100100000000000100020002000,
#MEASURE 4/4
10101001,
#BPMCHANGE 198.232
1,
,
#GOGOSTART
4040,
4044,
#GOGOEND
10
#GOGOSTART
222002,
200000000100100020002000,
10210104,
0011101022202220,
100000000000200200200000200000002000000020000000,
200000100100100000000000200000002000000020000000,
3022203022203022,
2030222030203020,
300222222222,
200111101010,
1700,
0008,
21212121,
200100200000400040004000,
3022203022203022,
#GOGOEND
23000000,
#GOGOSTART
47847847,
84784708,
4444,
400400
#GOGOEND
404040,
0
#GOGOSTART
600,
8000111011101110,
1010202220222020,
2011002001002020,
100222200222,
200010200010201
#GOGOEND
0,
0
#GOGOSTART
44444,
7,
#MEASURE 8/4
#GOGOEND
#BPMCHANGE 99.116
800000000000000000000000000000200000200000200000200000000200200000000000200000000000200010002000,
#MEASURE 4/4
#GOGOSTART
#BPMCHANGE 198.232
50850008,
1212,
5,
#GOGOEND
8,
#GOGOSTART
1010200020222022,
2022200011111010,
1000222220001111,
101100101100,
5,
8000222011102020,
3022203022203022,
2030222030203020,
6,
0080,
2220222220111020,
1001002002002002,
0020020020020010,
2222202222202222,
22222222,
#GOGOEND
40022002,
20022002,
20022002,
20022022,
#END
COURSE:Oni
LEVEL:10
SCOREINIT:
SCOREDIFF:
NOTESDESIGNER3:Colin
#START
1212,
11210112,
0010102010102022,
11121112,
10002000100020001000000022000000,
12121112,
01121122,
1111211122221120,
000000000000200000100000200200101010200000000000,
#GOGOSTART
3022201122112211,
2222112211221122,
1111221121222111,
200000101010200000100100100000101010200000000000,
1111201111201111,
2011222121112111,
#GOGOEND
2,
0012,
11121122,
000212,
21121122,
0012,
12121121,
0000200010002220,
100200200222100100200000,
2111211121112000,
1111201111201111,
2010112220102121,
2011201211112010,
2011202211112222,
2011201022112011,
2211221122221111,
2011104000400040,
04402020,
200000200000100100101010200200100200200200100000,
1120101020222030,
0040121121222210,
0020121120102222,
2020112121201020,
1110201120120121,
2011104010401040,
0022111122112222,
1030303021222122,
2211111030040040,
3030303022112122,
143434,
3022203022203022,
2030222012222012,
2220121220121220,
1212212211212112,
1122211121121121,
2121212121212121,
#BPMCHANGE 99.116
#BMSCROLL
20000002,
#MEASURE 8/4
22000000000020002000000000002000200000000000200020000000000020001100000000002000100000000000100022000000000000001000000020000000,
11000000000020002000000000002000200000000000200020000000000022002200000000002000200000000000100020000000000000002000000010000000,
100100000000000000000000000000000000000000000000000000000000100000000000200000000000200000000000200200000000000000000000100000000000000000000000200000000000000000000000000000000000000000000000100100000000000000000000200000000000200000000000100000000000200000000000000000000000200000000000100000000000000000000000000000000000000000000000100000000000000020000000000000002000000000000000,
#MEASURE 4/4
20212012,
#BPMCHANGE 198.232
1,
0000000012121122,
#GOGOSTART
122222222222,
122222303030,
#GOGOEND
3011
#GOGOSTART
202220102011,
1010201110120120,
4011104010301040,
0011221122112211,
2011221121121121,
2011212220120120,
300000200200200000300000101010100000400000200000,
1210222210221022,
100111222111,
200111201020,
100202122122,
100020002000100020002000101010100100200000100000,
40414141,
4022112120040040,
3022111122112111,
#GOGOEND
2000100022222222,
#GOGOSTART
1111201122201122,
200000200200100100200000200200100100202020202020,
200200100100200200100100200200101010200200100100,
20112211
#GOGOEND
20040040,
00
#GOGOSTART
600008,
2222112211112222,
1011201022112010,
2012012021012020,
3000112120112222,
101120201111222
#GOGOEND
2,
0
#GOGOSTART
33344,
202020101010202020111111,
#MEASURE 8/4
#GOGOEND
#BPMCHANGE 99.116
200000000100100000000000000000100000200000200000200000000200200000000000200000000200200020002000,
#MEASURE 4/4
#GOGOSTART
#BPMCHANGE 198.232
4011201121111011,
2010221122112011,
2222221122112020,
#GOGOEND
10210210,
#GOGOSTART
1111201211112120,
2211222211111111,
1020120211112211,
122122122122,
1011212011112222,
1111222211112222,
1022203022203022,
2030222030204020,
1122201112201222,
2011122021122021,
1220212220221120,
1221221221222212,
1121121121122222,
222222222222222222222222,
111111111111111111111111,
#GOGOEND
20022002,
20022002,
20022002,
20022022,
#END