Files
Colins_Custom_Charts/02 Anime/Transcend/Transcend.tja
T
2025-08-12 14:39:56 -04:00

361 lines
2.9 KiB
Plaintext
Raw Blame History

This file contains ambiguous Unicode characters
This file contains Unicode characters that might be confused with other characters. If you think that this is intentional, you can safely ignore this warning. Use the Escape button to reveal them.
TITLE:Transcend
SUBTITLE:--[Alexandros] / Umamusume:Cinderella Gray
TITLEJA:超える
SUBTITLEJA:[Alexandros] 「ウマ娘 シンデレラグレイ」より
PREIMAGE:Transcend.jpg
BGMOVIE:Transcend.mp4
WAVE:Transcend.ogg
BPM:200.015
OFFSET:-1.170
DEMOSTART:64.165
GENRE:アニメ
MAKER:Colin
COURSE:Easy
LEVEL:2
SCOREINIT:
SCOREDIFF:
NOTESDESIGNER0:Colin
#START
,
#GOGOSTART
3,
0030,
3,
,
3,
0030,
3,
,
#GOGOEND
3,
,
1,
1,
1010,
1,
1,
1,
2,
2,
2020,
2,
2,
2,
2020,
2,
3,
,
1,
,
1,
1010,
1,
,
2,
2,
2020,
2,
4,
,
,
,
4,
4,
4,
,
1,
1,
1010,
1,
1,
1,
1010,
1,
#GOGOSTART
3010,
1,
1011,
1,
1010,
1,
1011,
1,
2020,
2,
2022,
2,
2020,
2,
2020,
2,
0006,
,
8,
000000000000000
#GOGOEND
0,
#END
COURSE:Normal
LEVEL:4
SCOREINIT:
SCOREDIFF:
NOTESDESIGNER1:Colin
#START
,
#GOGOSTART
3,
0030,
3,
,
3,
0030,
3003,
,
#GOGOEND
3,
,
10001101,
0010,
10001101,
,
1011,
1,
20002202,
,
20002202,
,
20002202,
,
20002022,
2220,
3010,
1,
1011,
1,
10001011,
1011,
1010,
1,
2020,
2,
2220,
2020,
4,
,
,
,
4,
4,
4,
,
1010,
1011,
1011,
1010,
1010,
1011,
1111,
1,
#GOGOSTART
30001011,
1010,
1111,
1,
10001011,
1010,
10101011,
1,
2220,
20222000,
2222,
2,
20022002,
2020,
2222,
2020,
2006,
,
8,
000000000000000
#GOGOEND
0,
#END
COURSE:Hard
LEVEL:4
BALLOON:12
SCOREINIT:
SCOREDIFF:
NOTESDESIGNER2:Colin
#START
,
#GOGOSTART
3,
0020,
10020010,
,
1,
0020,
10020020,
,
#GOGOEND
3,
,
10200021,
0212,
10200021,
0212,
10201121,
01201021,
00201120,
01201020,
00201121,
00200120,
10200121,
00201120,
10200120,
1010200020222020,
10200120,
10200120,
10200120,
10200122,
10200120,
10200122,
10200120,
7,
80002001,
0120,
10002001,
00102100,
3,
,
,
,
3,
3,
3,
3,
3212,
1212,
1212,
1212,
10201120,
10201120,
1011101010111010,
4400,
#GOGOSTART
30200120,
11210120,
10201121,
01201120,
10201122,
10201120,
10201120,
1000200020222020,
30200120,
11210120,
10201121,
01201120,
10201122,
10201120,
10201120,
1000200020222020,
10200600,
,
8,
000000003030303
#GOGOEND
0,
#END
COURSE:Oni
LEVEL:7
SCOREINIT:
SCOREDIFF:
NOTESDESIGNER3:Colin
#START
0000000022112000,
#GOGOSTART
31202112,
0010202011112222,
1000201020111020,
0010201120112222,
11202112,
0010202011112222,
1000201020111020,
0010201120221111,
#GOGOEND
1,
00002002,
30201121,
01201122,
01201121,
0010201110102010,
10201121,
0010201110112030,
01201121,
0010200010112020,
10201121,
01201122,
01201121,
0010201110102000,
10201121,
0010200020112222,
10201121,
01201120,
10201121,
0010201110102000,
10201121,
01201120,
10201120,
222222111111,
10102001,
0020100020100022,
12102021,
21012100,
3010,
1012,
0201,
20005008,
0010,
1022,
0102,
2022,
30101210,
10101210,
10101210,
10101212,
1000101110201020,
1011102010201020,
12221222,
1222122210000000,
#GOGOSTART
30201121,
01201120,
10201121,
0010202010112000,
10201120,
1000201110102000,
1000202210102010,
1000201022221111,
10201121,
0010201110102000,
10201121,
0011201010102000,
10201121,
01201120,
1011101110102010,
2011102022222222,
10212600,
,
80201102,
001020112222222
#GOGOEND
2,
#END